Рангун / Rangoon (2017) BDRip 1080p

Reply to topic
 
Author Message

Monk ®

Gender: Male

Longevity: 10 months 4 days

Posts: 8711

Location: Казань

Post 26-Nov-2018 13:11

[Quote]

Рангун / Rangoon Год выпуска: 2017
Жанр: Боевик, драма, мелодрама, военный, история
Выпущено: Индия, Viacom18 Motion Pictures, Vishal Bhardwaj Pictures, Nadiadwala Grandson Entertainment
Режиссер: Вишал Бхарадвадж
В ролях: Кангана Ранаут, Саиф Али Кхан, Шахид Капур, Амрута Кханвилкар, Ричард МакКейб, Сурендра Пэл, Шришвара, Гаджрадж Рао
О фильме: 1944 год. Идёт Вторая Мировая Война. Британия полностью оккупировала Индию и создала там индийско-британскую армию, в которой преданно служит сержант Наваб Малик – человек с храбрым сердцем и твёрдым духом. Именно ему поручают перевезти в Бирму актрису и любимицу всего народа – Джулию, сердце которой принадлежит единственной любви всей её жизни – суровому продюсеру Руси Биллимория. Невероятная история, полная любви, ненависти, интриг и хитросплетений развернётся на фоне самой знаменательной войны в истории Индии – войны за свободу и независимость…
Качество: BDRip 1080p
Видео: MPEG-4 AVC, 9031 Кбит/с, 1920x800
Аудио: Русский (AC3, 6 ch, 384 Кбит/с), хинди (AC3, 6 ch, 640 Кбит/с)
Продолжительность: 02:32:36
Перевод: Профессиональный многоголосый [Honey&Haseena]
Субтитры: Английские

Скриншоты



MediaInfo

General
Unique ID : 234329549372706509733882282783319121357 (0xB04A3AC702CE500A92533E02A2A1DDCD)
Complete name : D:\Загрузки\Rangoon 2017 Hindi 1080p BluRay x264 DTS-HDMA 7.1 - Hon3y\Rangoon 2017 Hindi 1080p BluRay x264.[jasinpapa].mkv
Format : Matroska
Format version : Version 4 / Version 2
File size : 10.7 GiB
Duration : 2 h 32 min
Overall bit rate : 10.1 Mb/s
Movie name : ~ jasinpapa ~
Encoded date : UTC 2017-12-15 04:37:35
Writing application : mkvmerge v9.6.0 ('Slave To Your Mind') 32bit
Writing library : libebml v1.3.4 + libmatroska v1.4.5
Video
ID : 1
Format : AVC
Format/Info : Advanced Video Codec
Format profile : High@L4.1
Format settings, CABAC : Yes
Format settings, ReFrames : 5 frames
Codec ID : V_MPEG4/ISO/AVC
Duration : 2 h 32 min
Bit rate : 9 031 kb/s
Width : 1 920 pixels
Height : 800 pixels
Display aspect ratio : 2.40:1
Frame rate mode : Constant
Frame rate : 24.000 FPS
Color space : YUV
Chroma subsampling : 4:2:0
Bit depth : 8 bits
Scan type : Progressive
Bits/(Pixel*Frame) : 0.245
Stream size : 9.62 GiB (90%)
Title : ~ jasinpapa ~
Writing library : x264 core 150 r2833 df79067
Encoding settings : cabac=1 / ref=5 / deblock=1:-1:-1 / analyse=0x3:0x133 / me=umh / subme=9 / psy=1 / psy_rd=1.00:0.15 / mixed_ref=1 / me_range=16 / chroma_me=1 / trellis=2 / 8x8dct=1 / cqm=0 / deadzone=21,11 / fast_pskip=0 / chroma_qp_offset=-3 / threads=12 / lookahead_threads=1 / sliced_threads=0 / nr=0 / decimate=1 / interlaced=0 / bluray_compat=0 / constrained_intra=0 / bframes=3 / b_pyramid=2 / b_adapt=2 / b_bias=0 / direct=3 / weightb=1 / open_gop=0 / weightp=2 / keyint=250 / keyint_min=24 / scenecut=40 / intra_refresh=0 / rc_lookahead=60 / rc=2pass / mbtree=1 / bitrate=9031 / ratetol=1.0 / qcomp=0.60 / qpmin=0 / qpmax=69 / qpstep=4 / cplxblur=20.0 / qblur=0.5 / ip_ratio=1.40 / aq=1:1.00
Default : Yes
Forced : No
Audio #1
ID : 3
Format : AC-3
Format/Info : Audio Coding 3
Format settings, Endianness : Big
Codec ID : A_AC3
Duration : 2 h 32 min
Bit rate mode : Constant
Bit rate : 640 kb/s
Channel(s) : 6 channels
Channel positions : Front: L C R, Side: L R, LFE
Sampling rate : 48.0 kHz
Frame rate : 31.250 FPS (1536 spf)
Bit depth : 16 bits
Compression mode : Lossy
Stream size : 699 MiB (6%)
Language : Hindi
Service kind : Complete Main
Default : No
Forced : No
Audio #2
ID : 4
Format : AC-3
Format/Info : Audio Coding 3
Format settings, Endianness : Big
Codec ID : A_AC3
Duration : 2 h 32 min
Bit rate mode : Constant
Bit rate : 384 kb/s
Channel(s) : 6 channels
Channel positions : Front: L C R, Side: L R, LFE
Sampling rate : 48.0 kHz
Frame rate : 31.250 FPS (1536 spf)
Bit depth : 16 bits
Compression mode : Lossy
Stream size : 419 MiB (4%)
Language : Russian
Service kind : Complete Main
Default : Yes
Forced : Yes
Text
ID : 2
Format : UTF-8
Codec ID : S_TEXT/UTF8
Codec ID/Info : UTF-8 Plain Text
Duration : 2 h 27 min
Bit rate : 37 b/s
Count of elements : 1380
Stream size : 40.8 KiB (0%)
Language : English
Default : No
Forced : No
[Profile] [PM]
Display posts:    
Reply to topic

Current time is: 19-Sep 00:05

All times are UTC + 3



You cannot post new topics in this forum
You cannot reply to topics in this forum
You cannot edit your posts in this forum
You cannot delete your posts in this forum
You cannot vote in polls in this forum
You cannot attach files in this forum
You cannot download files in this forum