Мотылек / Papillon (2017) BDRip 720p | iTunes

Ответить на тему
 
Автор Сообщение

Monk ®

Пол: Мужской

Стаж: 4 месяца 11 дней

Сообщений: 4327

Откуда: Казань

Создавать темы 26-Ноя-2018 13:17

[Цитировать]

Мотылек / Papillon Год выпуска: 2017
Жанр: Триллер, драма, криминал, детектив
Выпущено: Чехия, Испания, США, Czech Anglo Productions, FishCorb Films, Red Granite Pictures
Режиссер: Михаэль Ноер
В ролях: Чарли Ханнэм, Рами Малек, Томми Флэнаган, Ив Хьюсон, Роланд Мёллер, Нина Сеникар, Майкл Сока, Кристофер Фэйрбэнк, Йорик ван Вагенинген, Йоэль Басман
О фильме: Авантюрист по прозвищу Мотылек получает пожизненный срок в тюрьме для особо опасных преступников - за убийство, которого он не совершал. Когда вокруг враги, а надежда угасает с каждым днём заключения, лишь сила духа может помочь Мотыльку обрести свободу.

Качество: BDRip 720p
Видео: MPEG-4 AVC, 4956 Кбит/с, 1280x536, 23.976 Кадр/с
Аудио: Русский (AC3, 6 ch, 384 Кбит/с), английский (DTS, 6 ch, 1509 Кбит/с)
Продолжительность: 02:13:14
Перевод: Дублированный [iTunes]
Субтитры: Английские

Скриншоты



MediaInfo

Общее
Уникальный идентификатор : 205947674055421361777653557567232876085 (0x9AF01449561ABA2F191192DD26531E35)
Полное имя : Papillon.2017.720p.BluRay.x264.DD5.1.Rus.Eng-KAZTORKA.mkv
Формат : Matroska
Версия формата : Version 4 / Version 2
Размер файла : 6,38 Гбайт
Продолжительность : 2 ч. 13 м.
Общий поток : 6850 Кбит/сек
Название фильма : Мотылек / Papillon (2017)
Дата кодирования : UTC 2018-11-26 03:34:00
Программа кодирования : mkvmerge v27.0.0 ('Metropolis') 64-bit
Библиотека кодирования : libebml v1.3.6 + libmatroska v1.4.9
Видео
Идентификатор : 1
Формат : AVC
Формат/Информация : Advanced Video Codec
Профиль формата : High@L4.1
Настройки формата : CABAC / 9 Ref Frames
Параметр CABAC формата : Да
Параметр RefFrames формата : 9 кадров
Идентификатор кодека : V_MPEG4/ISO/AVC
Продолжительность : 2 ч. 13 м.
Битрейт : 4956 Кбит/сек
Ширина : 1280 пикселей
Высота : 536 пикселей
Соотношение сторон : 2,40:1
Режим частоты кадров : Постоянный
Частота кадров : 23,976 (24000/1001) кадра/сек
Цветовое пространство : YUV
Субдискретизация насыщенности : 4:2:0
Битовая глубина : 8 бит
Тип развёртки : Прогрессивная
Бит/(Пиксели*Кадры) : 0.301
Размер потока : 4,61 Гбайт (72%)
Заголовок : Papillon.2017.720p.BluRay.x264.DD5.1.Rus.Eng-KAZTORKA
Библиотека кодирования : x264 core 155 r2901 7d0ff22
Настройки программы : cabac=1 / ref=9 / deblock=1:-3:-3 / analyse=0x3:0x133 / me=umh / subme=10 / psy=1 / psy_rd=1.00:0.15 / mixed_ref=1 / me_range=64 / chroma_me=1 / trellis=2 / 8x8dct=1 / cqm=0 / deadzone=21,11 / fast_pskip=0 / chroma_qp_offset=-3 / threads=17 / lookahead_threads=2 / sliced_threads=0 / nr=0 / decimate=1 / interlaced=0 / bluray_compat=0 / constrained_intra=0 / bframes=8 / b_pyramid=2 / b_adapt=2 / b_bias=0 / direct=3 / weightb=1 / open_gop=0 / weightp=2 / keyint=300 / keyint_min=24 / scenecut=40 / intra_refresh=0 / rc_lookahead=60 / rc=crf / mbtree=1 / crf=15.5 / qcomp=0.60 / qpmin=0 / qpmax=69 / qpstep=4 / ip_ratio=1.40 / aq=2:1.00
Язык : English
Default : Да
Forced : Нет
Аудио #1
Идентификатор : 2
Формат : AC-3
Формат/Информация : Audio Coding 3
Идентификатор кодека : A_AC3
Продолжительность : 2 ч. 12 м.
Вид битрейта : Постоянный
Битрейт : 384 Кбит/сек
Каналы : 6 каналов
Расположение каналов : Front: L C R, Side: L R, LFE
Частота : 48,0 КГц
Частота кадров : 31,250 кадров/сек (1536 SPF)
Битовая глубина : 16 бит
Метод сжатия : С потерями
Размер потока : 365 Мбайт (6%)
Заголовок : iTunes | Papillon.2017.720p.BluRay.x264.DD5.1.Rus.Eng-KAZTORKA
Язык : Russian
ServiceKind/String : Complete Main
Default : Да
Forced : Нет
Аудио #2
Идентификатор : 3
Формат : DTS
Формат/Информация : Digital Theater Systems
Идентификатор кодека : A_DTS
Продолжительность : 2 ч. 13 м.
Вид битрейта : Постоянный
Битрейт : 1509 Кбит/сек
Каналы : 6 каналов
Расположение каналов : Front: L C R, Side: L R, LFE
Частота : 48,0 КГц
Частота кадров : 93,750 кадра/сек (512 SPF)
Битовая глубина : 24 бит
Метод сжатия : С потерями
Размер потока : 1,40 Гбайт (22%)
Язык : English
Default : Нет
Forced : Нет
Текст #1
Идентификатор : 4
Формат : UTF-8
Идентификатор кодека : S_TEXT/UTF8
Идентификатор кодека/Информация : UTF-8 Plain Text
Продолжительность : 2 ч. 1 м.
Битрейт : 28 бит/сек
ElementCount : 974
Размер потока : 25,6 Кбайт (0%)
Заголовок : Full
Язык : English
Default : Нет
Forced : Нет
Текст #2
Идентификатор : 5
Формат : UTF-8
Идентификатор кодека : S_TEXT/UTF8
Идентификатор кодека/Информация : UTF-8 Plain Text
Продолжительность : 2 ч. 12 м.
Битрейт : 32 бит/сек
ElementCount : 1223
Размер потока : 31,2 Кбайт (0%)
Заголовок : SDH
Язык : English
Default : Нет
Forced : Нет
Меню
00:00:00.000 : :00:00:00.000
00:08:16.621 : :00:08:16.621
00:16:47.590 : :00:16:47.590
00:21:25.910 : :00:21:25.910
00:26:31.965 : :00:26:31.965
00:30:39.796 : :00:30:39.796
00:34:10.799 : :00:34:10.799
00:44:51.147 : :00:44:51.147
00:52:54.588 : :00:52:54.588
00:59:03.665 : :00:59:03.665
01:04:12.891 : :01:04:12.891
01:12:18.334 : :01:12:18.334
01:20:35.372 : :01:20:35.372
01:24:08.418 : :01:24:08.418
01:35:19.547 : :01:35:19.547
01:40:53.047 : :01:40:53.047
01:47:10.883 : :01:47:10.883
01:57:03.016 : :01:57:03.016
02:02:58.913 : :02:02:58.913
02:05:57.550 : :02:05:57.550
[Профиль] [ЛС]
Показать сообщения:    
Ответить на тему

Текущее время: 25-Мар 13:49

Часовой пояс: UTC + 3



Вы не можете начинать темы
Вы не можете отвечать на сообщения
Вы не можете редактировать свои сообщения
Вы не можете удалять свои сообщения
Вы не можете голосовать в опросах
Вы не можете прикреплять файлы к сообщениям
Вы не можете скачивать файлы