Наше счастливое завтра [1-16 серии из 16] (2017) HDTVRip-AVC от Files-x

Reply to topic
 
Author Message

papa1951deda ®

Gender: Male

Longevity: 9 months 27 days

Posts: 290

Location: Казахстан

Post 26-Nov-2018 13:23

[Quote]

Наше счастливое завтра Год выпуска: 2017
Жанр: Мелодрама, криминал
Выпущено: "Триикс Медиа" по заказу НТВ
Режиссёр: Игорь Копылов
В ролях: Илья Носков, Ольга Павловец, Кирилл Рубцов, Юлия Ауг, Евгений Миллер, Андрей Некрасов (III), Алиса Горшкова, Сергей Юшкевич, Константин Демидов (II), Оксана Базилевич, Роман Агеев, Мария Луговая, Светлана Глазырина, Алексей Красноцветов, Снежана Прудько, Алексей Осипов (IV), Глафира Козулина, Олег Чугунов, Мария Феклистова, Игорь Грабузов, Вячеслав Аркунов, Жорж Девдариани, Кира Кауфман, Ирина Грицай, Ольга Кожевникова, Алексей Серебряков
О фильме: История делится на временные отрезки с разницей в четыре года - от хрущевской «оттепели» до брежневского «застоя», от горбачевской «перестройки» до расстрела Белого дома. За тридцать лет стремительно меняется страна и жизнь этих молодых людей, но каждый из них всегда будет верить, что когда-нибудь наступит его личное, счастливое завтра.
Качество: HDTVRip-AVC
Видео: MPEG 4 AVC, ~ 2000 Кбит/с, 1024x576, 25 кадр/с
Аудио: AC3, 2 ch, 192 Кбит/с
Продолжительность: 16 x ~ 00:50:00
Перевод: Не требуется
Субтитры: Нет

Скриншоты

MediaInfo

General
Unique ID : 230673248780521296022961070880558773235 (0xAD8A0D3D7E0C8CBC82848AE10C4573F3)
Complete name : D:\моё видио\Наше счастливое завтра.(2016).HDTVRip.(AVC).Files-x\01.Наше счастливое завтра.(2016).HDTVRip.AVC.by.Серый1779.Files-x.mkv
Format : Matroska
Format version : Version 2
File size : 778 MiB
Duration : 49mn 33s
Overall bit rate : 2 194 Kbps
Encoded date : UTC 2017-04-25 02:44:31
Writing application : mkvmerge v7.8.0 ('River Man') 32bit built on Apr 3 2015 12:11:22
Writing library : libebml v1.3.1 + libmatroska v1.4.2
Video
ID : 1
Format : AVC
Format/Info : Advanced Video Codec
Format profile : High@L4.1
Format settings, CABAC : Yes
Format settings, ReFrames : 9 frames
Codec ID : V_MPEG4/ISO/AVC
Duration : 49mn 33s
Bit rate : 2 000 Kbps
Width : 1 024 pixels
Height : 576 pixels
Display aspect ratio : 16:9
Frame rate mode : Constant
Frame rate : 25.000 fps
Color space : YUV
Chroma subsampling : 4:2:0
Bit depth : 8 bits
Scan type : Progressive
Bits/(Pixel*Frame) : 0.136
Stream size : 694 MiB (89%)
Writing library : x264 core 146 r2538 121396c
Encoding settings : cabac=1 / ref=9 / deblock=1:-2:-1 / analyse=0x3:0x113 / me=umh / subme=9 / psy=1 / psy_rd=1.00:0.15 / mixed_ref=1 / me_range=32 / chroma_me=1 / trellis=2 / 8x8dct=1 / cqm=0 / deadzone=21,11 / fast_pskip=0 / chroma_qp_offset=-3 / threads=6 / lookahead_threads=1 / sliced_threads=0 / nr=0 / decimate=1 / interlaced=0 / bluray_compat=0 / constrained_intra=0 / bframes=9 / b_pyramid=2 / b_adapt=2 / b_bias=0 / direct=1 / weightb=1 / open_gop=0 / weightp=2 / keyint=250 / keyint_min=25 / scenecut=40 / intra_refresh=0 / rc_lookahead=50 / rc=2pass / mbtree=0 / bitrate=2000 / ratetol=1.0 / qcomp=0.60 / qpmin=0 / qpmax=69 / qpstep=4 / cplxblur=20.0 / qblur=0.5 / vbv_maxrate=14000 / vbv_bufsize=14000 / nal_hrd=none / filler=0 / ip_ratio=1.40 / pb_ratio=1.30 / aq=2:1.00
Default : Yes
Forced : No
Color primaries : BT.709
Transfer characteristics : BT.709
Matrix coefficients : BT.709
Audio
ID : 2
Format : AC-3
Format/Info : Audio Coding 3
Mode extension : CM (complete main)
Format settings, Endianness : Big
Codec ID : A_AC3
Duration : 49mn 33s
Bit rate mode : Constant
Bit rate : 192 Kbps
Channel(s) : 2 channels
Channel positions : Front: L R
Sampling rate : 48.0 KHz
Bit depth : 16 bits
Compression mode : Lossy
Stream size : 68.1 MiB (9%)
Default : Yes
Forced : No
Релиз от:
[Profile] [PM]
Display posts:    
Reply to topic

Current time is: 18-Sep 04:53

All times are UTC + 3



You cannot post new topics in this forum
You cannot reply to topics in this forum
You cannot edit your posts in this forum
You cannot delete your posts in this forum
You cannot vote in polls in this forum
You cannot attach files in this forum
You cannot download files in this forum