Американская история ужасов / American Horror Story [1-8 сезоны: 1-94 серии из 94] (2011-2018) от Generalfilm | КПК | Новамедиа

Reply to topic
 
Author Message

GORGIK ®

Gender: Male

Longevity: 8 months 7 days

Posts: 124

Location: СССР

Post 26-Nov-2018 15:55

[Quote]

Американская история ужасов / American Horror Story
Год выпуска: 2011
Жанр: Ужасы, драма, фантастика, триллер, детектив
Выпущено: США, 20th Century Fox Television
Режиссер: Брэдли Букер, Дэвид Семел, Альфонсо Гомез-Рейон, Майкл Аппендаль
В ролях: Эван Питерс, Джессика Лэнг, Лили Рэйб, Фрэнсис Конрой, Сара Полсон, Таисса Фармига, Дэнис О`Харе, Закари Куинто, Дилан МакДермотт, Джэми Брюэр, Кэти Бэйтс, Джозеф Файнс, Лиззи Брошере, Эмма Робертс, Джеймс Кромуэлл, Мэттью Джон Армстронг
О фильме: Первый сезон сериала сосредоточен на семействе Хармонов, которые переезжают из Бостона в Лос-Анджелес, чтобы начать новую жизнь, и поселяются в старинном отреставрированном особняке, не представляя, что его предыдущие жильцы так и не нашли покоя после смерти.
Второй сезон рассказывает совершенно другую историю — действие разворачивается вокруг журналистки, которая приехала в психбольницу для душевнобольных преступников в надежде отснять репортаж о новоприбывшем маньяке «Кровавый лик», беспощадно убивавшем случайных женщин.
В третьем сезоне речь идет о шабаше ведьм, замаскированном под элитный пансион для «одаренных» девушек, который пытается защитить последних представительниц этого вида от вымирания.
Сюжет четвёртого сезона вращается вокруг одного из последних «Цирков уродов» в 1950-х годах.
События пятого сезона происходят в большом позабытом многими отеле в центральной части Лос-Анджелеса. Этот отель скрывает в своих стенах множество секретов.
Качество: WEB-DLRip | КПК
Видео: MPEG-4 AVC (x264), 640x360, ~500 kbps, 23.976 fps
Аудио: AAC LC, 44.1 KHz, 2 ch, 128 Kbps
Продолжительность: 94 х ~ 00:50:00
Перевод: Профессиональный (многоголосый закадровый) [Новамедиa]
Cубтитры: нет

MediaInfo

Complete name : E:KinoAmerikanskaya.Istoriya.Uzhasov.AVC.KPK.NM.GeneralfilmAmerikanskaya.Istoriya.Uzhasov.S03.2013.AVC.HDRip.KPK.NM.GeneralfilmAmerikanskaya.Istoriya.Uzhasov.s03e01.2013.AVC.HDRip.KPK.NM.Generalfilm.mp4
Format : MPEG-4
Format profile : Base Media
Codec ID : isom
File size : 230 MiB
Duration : 50mn 54s
Overall bit rate mode : Variable
Overall bit rate : 631 Kbps
Encoded date : UTC 2014-12-30 13:15:52
Tagged date : UTC 2014-12-30 13:15:52
Video
ID : 1
Format : AVC
Format/Info : Advanced Video Codec
Format profile : High@L4.1
Format settings, CABAC : Yes
Format settings, ReFrames : 8 frames
Codec ID : avc1
Codec ID/Info : Advanced Video Coding
Duration : 50mn 54s
Bit rate : 500 Kbps
Maximum bit rate : 5 512 Kbps
Width : 640 pixels
Height : 360 pixels
Display aspect ratio : 16:9
Frame rate mode : Constant
Frame rate : 23.976 fps
Color space : YUV
Chroma subsampling : 4:2:0
Bit depth : 8 bits
Scan type : Progressive
Bits/(Pixel*Frame) : 0.091
Stream size : 182 MiB (79%)
Writing library : x264 core 130 r2273 b3065e6
Encoding settings : cabac=1 / ref=8 / deblock=1:-2:-2 / analyse=0x3:0x133 / me=umh / subme=10 / psy=1 / psy_rd=1.00:0.00 / mixed_ref=1 / me_range=24 / chroma_me=1 / trellis=2 / 8x8dct=1 / cqm=0 / deadzone=21,11 / fast_pskip=1 / chroma_qp_offset=-2 / threads=12 / lookahead_threads=2 / sliced_threads=0 / nr=0 / decimate=0 / interlaced=0 / bluray_compat=0 / constrained_intra=0 / bframes=8 / b_pyramid=2 / b_adapt=2 / b_bias=0 / direct=3 / weightb=1 / open_gop=0 / weightp=2 / keyint=240 / keyint_min=121 / scenecut=40 / intra_refresh=0 / rc_lookahead=40 / rc=2pass / mbtree=1 / bitrate=500 / ratetol=1.0 / qcomp=0.60 / qpmin=0 / qpmax=69 / qpstep=4 / cplxblur=20.0 / qblur=0.5 / ip_ratio=1.40 / aq=1:1.00
Encoded date : UTC 2014-12-30 13:15:52
Tagged date : UTC 2014-12-30 13:15:57
Audio
ID : 2
Format : AAC
Format/Info : Advanced Audio Codec
Format profile : LC
Codec ID : 40
Duration : 50mn 54s
Bit rate mode : Variable
Bit rate : 127 Kbps
Maximum bit rate : 152 Kbps
Channel count : 2 channels
Channel positions : Front: L R
Sampling rate : 48.0 KHz
Compression mode : Lossy
Delay relative to video : 125ms
Stream size : 46.4 MiB (20%)
Encoded date : UTC 2014-12-30 13:15:56
Tagged date : UTC 2014-12-30 13:15:57
Релиз от:
[Profile] [PM]
Display posts:    
Reply to topic

Current time is: 23-Jul 11:52

All times are UTC + 3



You cannot post new topics in this forum
You cannot reply to topics in this forum
You cannot edit your posts in this forum
You cannot delete your posts in this forum
You cannot vote in polls in this forum
You cannot attach files in this forum
You cannot download files in this forum