Папаньки [1-16 серии из 16] (2018) WEB-DLRip от GeneralFilm | КПК

Reply to topic
 
Author Message

GORGIK ®

Gender: Male

Longevity: 5 months 7 days

Posts: 83

Location: СССР

Post 26-Nov-2018 16:03

[Quote]

Папаньки
Год выпуска: 2018
Жанр: Комедия
Выпущено: Украина, Дизель Студия
Режиссер: Ирина Васильева (II), Александр Кананович
В ролях: Егор Крутоголов, Евгений Гашенко, Евгений Сморигин, Андрей Фединчик, Лилия Ребрик, Демьян Шиян, Ольга Арутюнян, Вероника Лукьяненко, Ольга Лукьяненко, Надежда Кондратовская, Анна Варпаховская, Олег Стальчук, Вячеслав Хостикоев, Александр Ярема, Олег Иваница, Лариса Трояновская, Татьяна Зиновенко, Анатолий Зиновенко, Александр Бережок, Александр Бегма, Мария Мархай
О фильме: Четверо друзей живут в одном дворе столичной многоэтажки. Кроме чисто мужских интересов, их объединяет важная тема – воспитание детей. Один из героев только готовится стать отцом, другой воспитывает 7-летнего сына, а третий – сына и двух дочек разного возраста. Герои безумно любят своих детей, гордятся их успехами и активно вовлечены в их воспитание. Только иногда отцы забывают, что сами уже выросли. И есть у них ещё четвёртый друг – заядлый холостяк и ловелас, который категорически не хочет заводить детей.
Качество: WEB-DLRip | КПК
Видео: MPEG-4 AVC (x264), 640x360, ~500 kbps, 25.000 fps
Аудио: AAC LC, 44.1 KHz, 2 ch, 128 Kbps
Продолжительность: 16 х ~ 00:53:00
Перевод: Не требуется
Cубтитры: нет

Скриншоты

MediaInfo

Complete name : F:КИНОPapan'ki.AVC.KPK.GFPapan'ki.S01.2018.AVC.WEB-DLRip.KPK.GFPapan'ki.s01e02.2018.AVC.WEB-DLRip.KPK.GF.mp4
Format : MPEG-4
Codec ID : M4V (isom/iso2/avc1)
File size : 243 MiB
Duration : 53 min 35 s
Overall bit rate mode : Variable
Overall bit rate : 633 kb/s
Writing application : Lavf53.19.0
Video
ID : 1
Format : AVC
Format/Info : Advanced Video Codec
Format profile : High@L4.1
Format settings, CABAC : Yes
Format settings, RefFrames : 8 frames
Codec ID : avc1
Codec ID/Info : Advanced Video Coding
Duration : 53 min 35 s
Bit rate : 500 kb/s
Width : 640 pixels
Height : 360 pixels
Display aspect ratio : 16:9
Frame rate mode : Constant
Frame rate : 25.000 FPS
Color space : YUV
Chroma subsampling : 4:2:0
Bit depth : 8 bits
Scan type : Progressive
Bits/(Pixel*Frame) : 0.087
Stream size : 192 MiB (79%)
Writing library : x264 core 148 r2638 7599210
Encoding settings : cabac=1 / ref=8 / deblock=1:-1:-1 / analyse=0x3:0x133 / me=umh / subme=10 / psy=1 / psy_rd=1.00:0.00 / mixed_ref=1 / me_range=24 / chroma_me=1 / trellis=2 / 8x8dct=1 / cqm=0 / deadzone=21,11 / fast_pskip=1 / chroma_qp_offset=-2 / threads=6 / lookahead_threads=1 / sliced_threads=0 / nr=0 / decimate=1 / interlaced=0 / bluray_compat=0 / constrained_intra=0 / bframes=8 / b_pyramid=2 / b_adapt=2 / b_bias=0 / direct=3 / weightb=1 / open_gop=0 / weightp=2 / keyint=250 / keyint_min=126 / scenecut=40 / intra_refresh=0 / rc_lookahead=40 / rc=2pass / mbtree=1 / bitrate=500 / ratetol=1.0 / qcomp=0.60 / qpmin=0 / qpmax=69 / qpstep=4 / cplxblur=20.0 / qblur=0.5 / ip_ratio=1.40 / aq=1:1.00
Menus : 3
Audio
ID : 2
Format : AAC
Format/Info : Advanced Audio Codec
Format profile : LC
Codec ID : 40
Duration : 53 min 35 s
Bit rate mode : Variable
Bit rate : 128 kb/s
Channel(s) : 2 channels
Channel positions : Front: L R
Sampling rate : 44.1 kHz
Frame rate : 43.066 FPS (1024 SPF)
Compression mode : Lossy
Stream size : 49.1 MiB (20%)
Default : Yes
Alternate group : 1
Menus : 3
Релиз от:
[Profile] [PM]
Display posts:    
Reply to topic

Current time is: 23-Apr 09:57

All times are UTC + 3



You cannot post new topics in this forum
You cannot reply to topics in this forum
You cannot edit your posts in this forum
You cannot delete your posts in this forum
You cannot vote in polls in this forum
You cannot attach files in this forum
You cannot download files in this forum