Discovery. Голые и напуганные XL / Naked and Afraid XL [4 сезон: 1-13 серии из 13] (2018) HDTV 1080р от GeneralFilm

Reply to topic
 
Author Message

Starik60 ®

Gender: Male

Longevity: 1 year

Posts: 182

Location: Москва, Россия

Post 26-Nov-2018 16:07

[Quote]

Голые и напуганные XL / Naked and Afraid XL
Год выпуска: 2018
Жанр: Документальный, реалити-шоу, экстрим
Выпущено: США, Discovery, Renegade 83
Режиссер: Мисси Хьюз, Тимми Пол
В ролях: Клинт Живоин, Эррол Джеймс Снайдер, Пума Кабра, Кайли Фурно
О фильме: Те, кому пришлось выживать в дикой природе, признаются, что это одно из самых тяжелых испытаний в их жизни. Неужели найдутся смельчаки, которые решатся вернуться в смертоносные джунгли реки Амазонки, однажды уже побывав там? Девять отчаянных храбрецов готовы на это! В новом сезоне программы «Голые и напуганные XL» им предстоит разделиться на три команды и попытаться выжить без одежды, пищи и какого-либо снаряжения на протяжении 40 дней и ночей. Им предстоит бороться с голодом, болезнями и животными зная, что ближайший город находится в 150 км от них. Далеко не все смогут справиться с таким испытанием. Кто же сойдет с дистанции, а кто дойдет до конца?

Качество: HDTV 1080p
Видео: MPEG-4 AVC, ~ 7000 Кбит/с, 1920x1080
Аудио: MP2, 2 ch, 384 Кбит/с
Продолжительность: 13 x ~ 00:44:00
Перевод: Профессиональный (многоголосый, закадровый)

Скриншоты



MediaInfo

General
ID : 1 (0x1)
Complete name : G:\Раздачи 2\Голые и напуганные XL S04 1080p GrnralFilm\01 Голые и напуганные XL S04 1080p GrnralFilm.ts
Format : MPEG-TS
File size : 2.34 GiB
Duration : 43 min 40 s
Overall bit rate mode : Variable
Overall bit rate : 7 668 kb/s
Video
ID : 224 (0xE0)
Menu ID : 1 (0x1)
Format : AVC
Format/Info : Advanced Video Codec
Format profile : High@L4.2
Format settings : CABAC / 3 Ref Frames
Format settings, CABAC : Yes
Format settings, ReFrames : 3 frames
Codec ID : 27
Duration : 43 min 40 s
Bit rate mode : Constant
Bit rate : 7 000 kb/s
Width : 1 920 pixels
Height : 1 080 pixels
Display aspect ratio : 16:9
Frame rate : 50.000 FPS
Standard : PAL
Color space : YUV
Chroma subsampling : 4:2:0
Bit depth : 8 bits
Scan type : Progressive
Bits/(Pixel*Frame) : 0.068
Stream size : 2.11 GiB (90%)
Color range : Limited
Color primaries : BT.709
Transfer characteristics : BT.709
Matrix coefficients : BT.709
Audio
ID : 4097 (0x1001)
Menu ID : 1 (0x1)
Format : MPEG Audio
Format version : Version 1
Format profile : Layer 2
Codec ID : 3
Duration : 43 min 40 s
Bit rate mode : Constant
Bit rate : 384 kb/s
Channel(s) : 2 channels
Sampling rate : 48.0 kHz
Frame rate : 41.667 FPS (1152 SPF)
Compression mode : Lossy
Delay relative to video : 16 ms
Stream size : 120 MiB (5%)
Language : English

Название серий

01. Звёзды в смертельной зоне. (спецвыпуск)
02. Охота на звёзд.
03. Африка наносит удар.
04. Африка дважды бьет.
05. Злость возвращается.
06. Балласт.
07. Черная метка.
08. Дикое путешествие.
09. Выживальщики против хищника.
10. Большая жратва.
11. Топ-десятка выбывших. (спецвыпуск)
12. Сражаться до конца.
13. Логово льва. (спецвыпуск)
Благодарю за отличный постер ValkiriaGF
Релиз от:
[Profile] [PM]
Display posts:    
Reply to topic

Current time is: 17-Nov 21:46

All times are UTC + 3



You cannot post new topics in this forum
You cannot reply to topics in this forum
You cannot edit your posts in this forum
You cannot delete your posts in this forum
You cannot vote in polls in this forum
You cannot attach files in this forum
You cannot download files in this forum