Discovery. Голые и напуганные XL / Naked and Afraid XL [1 сезон: 1-10 серии из 10] (2015) HDTV 1080i

Reply to topic
 
Author Message

Starik60 ®

Gender: Male

Longevity: 6 months 7 days

Posts: 130

Location: Москва, Россия

Post 26-Nov-2018 16:27

[Quote]

Голые и напуганные XL / Naked and Afraid XL
Год выпуска: 2015
Жанр: Документальный, реалити-шоу, экстрим
Выпущено: США, Discovery, Renegade 83
Режиссер: Мисси Хьюз, Тимми Пол
В ролях: Клинт Живоин, Эррол Джеймс Снайдер, Пума Кабра, Кайли Фурно
О фильме: Группа лучших в мире специалистов по выживанию сталкивается с невиданными прежде испытаниями. 12 человек должны пройти серьёзное испытание человеческой выносливости и воли к жизни: 40 дней и 40 ночей без еды, без воды и без одежды. Шесть женщин и шесть мужчин будут сражаться за ресурсы и пытаться выжить в экваториальных джунглях Колумбии. Как они смогут связаться друг с другом? Объединяться ли они в одну большую группу или разобьются на маленькие? Достигнет ли хоть один из них успеха по истечении 40 дней?

Качество: HDTV 1080i
Видео: AVC, ~ 7000 Кбит/с, 1920x1080
Аудио: MP2, 2 ch, 224 Кбит/с
Продолжительность: 10 x ~ 00:44:00
Перевод: Профессиональный (многоголосый, закадровый)

Скриншоты



MediaInfo

General
ID : 1 (0x1)
Complete name : H:\Раздачи 3\Голые и напуганные XL 1080i HitWay\01 Голые и напуганные XL 1080i HitWay.ts
Format : MPEG-TS
File size : 2.29 GiB
Duration : 43 min 52 s
Overall bit rate mode : Variable
Overall bit rate : 7 466 kb/s
Video
ID : 224 (0xE0)
Menu ID : 1 (0x1)
Format : AVC
Format/Info : Advanced Video Codec
Format profile : High@L4.1
Format settings : CABAC / 3 Ref Frames
Format settings, CABAC : Yes
Format settings, ReFrames : 3 frames
Codec ID : 27
Duration : 43 min 52 s
Bit rate mode : Constant
Bit rate : 7 000 kb/s
Width : 1 920 pixels
Height : 1 080 pixels
Display aspect ratio : 16:9
Frame rate : 30.000 FPS
Standard : NTSC
Color space : YUV
Chroma subsampling : 4:2:0
Bit depth : 8 bits
Scan type : Progressive
Bits/(Pixel*Frame) : 0.113
Stream size : 2.11 GiB (92%)
Color range : Limited
Color primaries : BT.709
Transfer characteristics : BT.709
Matrix coefficients : BT.709
Audio
ID : 4097 (0x1001)
Menu ID : 1 (0x1)
Format : MPEG Audio
Format version : Version 1
Format profile : Layer 2
Codec ID : 3
Duration : 43 min 52 s
Bit rate mode : Constant
Bit rate : 224 kb/s
Channel(s) : 2 channels
Sampling rate : 48.0 kHz
Frame rate : 41.667 FPS (1152 SPF)
Compression mode : Lossy
Delay relative to video : 11 ms
Stream size : 70.3 MiB (3%)
Language : English

Название серий

01. Добро пожаловать в джунгли.
02. 40 дней и ночей.
03. 40 дней в ловушке.
04. 40 дней и притаившаяся змея.
05. 40 дней в джунглях.
06. 40 дней и никакой надежды.
07. 40 дней жертв.
08. 40 дней раскола.
09. 40 дней грязи и гнева.
10. Возвращение "грязной дюжины".
Благодарю за отличный постер ValkiriaGF
Релиз от:
[Profile] [PM]
Display posts:    
Reply to topic

Current time is: 19-May 14:39

All times are UTC + 3



You cannot post new topics in this forum
You cannot reply to topics in this forum
You cannot edit your posts in this forum
You cannot delete your posts in this forum
You cannot vote in polls in this forum
You cannot attach files in this forum
You cannot download files in this forum