Discovery. Голые и напуганные XL / Naked and Afraid XL [2 сезон: 1-10 серия из 10] (2016) HDTV 1080i

Ответить на тему
 
Автор Сообщение

Starik60 ®

Пол: Мужской

Стаж: 4 месяца 9 дней

Сообщений: 119

Откуда: Москва, Россия

Создавать темы 26-Ноя-2018 16:52

[Цитировать]

Голые и напуганные XL / Naked and Afraid XL
Год выпуска: 2016
Жанр: Документальный, реалити-шоу, экстрим
Выпущено: США, Discovery, Renegade 83
Режиссер: Мисси Хьюз, Тимми Пол
В ролях: Клинт Живоин, Эррол Джеймс Снайдер, Пума Кабра, Кайли Фурно
О фильме: Группа лучших в мире специалистов по выживанию сталкивается с невиданными прежде испытаниями. 12 человек должны пройти серьёзное испытание человеческой выносливости и воли к жизни: 40 дней и 40 ночей без еды, без воды и без одежды. Шесть женщин и шесть мужчин будут сражаться за ресурсы и пытаться выжить в экваториальных джунглях Колумбии. Как они смогут связаться друг с другом? Объединяться ли они в одну большую группу или разобьются на маленькие? Достигнет ли хоть один из них успеха по истечении 40 дней?

Качество: HDTV 1080i
Видео: AVC, ~ 7000 Кбит/с, 1920x1080
Аудио: MP2, 2 ch, 364 Кбит/с
Продолжительность: 10 x ~ 00:45:00
Перевод: Профессиональный (многоголосый, закадровый)

Скриншоты



MediaInfo

General
ID : 1 (0x1)
Complete name : H:\Раздачи 3\Голые и напуганные XL s02 1080i HitWay\01 Голые и напуганные XL hitway.ts
Format : MPEG-TS
File size : 2.35 GiB
Duration : 43 min 52 s
Overall bit rate mode : Variable
Overall bit rate : 7 655 kb/s
Video
ID : 224 (0xE0)
Menu ID : 1 (0x1)
Format : AVC
Format/Info : Advanced Video Codec
Format profile : High@L4.1
Format settings : CABAC / 3 Ref Frames
Format settings, CABAC : Yes
Format settings, ReFrames : 3 frames
Codec ID : 27
Duration : 43 min 52 s
Bit rate mode : Constant
Bit rate : 7 000 kb/s
Width : 1 920 pixels
Height : 1 080 pixels
Display aspect ratio : 16:9
Frame rate : 30.000 FPS
Standard : NTSC
Color space : YUV
Chroma subsampling : 4:2:0
Bit depth : 8 bits
Scan type : Progressive
Bits/(Pixel*Frame) : 0.113
Stream size : 2.11 GiB (90%)
Color range : Limited
Color primaries : BT.709
Transfer characteristics : BT.709
Matrix coefficients : BT.709
Audio
ID : 4097 (0x1001)
Menu ID : 1 (0x1)
Format : MPEG Audio
Format version : Version 1
Format profile : Layer 2
Codec ID : 3
Duration : 43 min 52 s
Bit rate mode : Constant
Bit rate : 384 kb/s
Channel(s) : 2 channels
Sampling rate : 48.0 kHz
Frame rate : 41.667 FPS (1152 SPF)
Compression mode : Lossy
Delay relative to video : 1 ms
Stream size : 121 MiB (5%)
Language : English

Название серий

01. Миссия невыполнима. (спецвыпуск)
02. Львы у ворот.
03. Гнев.
04. Человеческая добыча.
05. Слишком много руководителей.
06. Самое дно.
07. Смертельные последствия.
08. Болезнь.
09. Последний рев.
10. Из Африки.
Благодарю за отличный постер ValkiriaGF
Релиз от:
[Профиль] [ЛС]
Показать сообщения:    
Ответить на тему

Текущее время: 22-Мар 10:22

Часовой пояс: UTC + 3



Вы не можете начинать темы
Вы не можете отвечать на сообщения
Вы не можете редактировать свои сообщения
Вы не можете удалять свои сообщения
Вы не можете голосовать в опросах
Вы не можете прикреплять файлы к сообщениям
Вы не можете скачивать файлы