Discovery. Голые и напуганные XL / Naked and Afraid XL [3 сезон: 1-11 серии из 11] (2017) HDTV 1080i

Reply to topic
 
Author Message

Starik60 ®

Gender: Male

Longevity: 6 months 10 days

Posts: 133

Location: Москва, Россия

Post 26-Nov-2018 17:13

[Quote]

Голые и напуганные XL / Naked and Afraid XL
Год выпуска: 2017
Жанр: Документальный, реалити-шоу, экстрим
Выпущено: США, Discovery, Renegade 83
Режиссер: Мисси Хьюз, Тимми Пол
В ролях: Клинт Живоин, Эррол Джеймс Снайдер, Пума Кабра, Кайли Фурно
О фильме: Те, кому пришлось выживать в дикой природе, признаются, что это одно из самых тяжелых испытаний в их жизни. Неужели найдутся смельчаки, которые решатся вернуться в смертоносные джунгли реки Амазонки, однажды уже побывав там? Девять отчаянных храбрецов готовы на это! В новом сезоне программы «Голые и напуганные XL» им предстоит разделиться на три команды и попытаться выжить без одежды, пищи и какого-либо снаряжения на протяжении 40 дней и ночей. Им предстоит бороться с голодом, болезнями и животными зная, что ближайший город находится в 150 км от них. Далеко не все смогут справиться с таким испытанием. Кто же сойдет с дистанции, а кто дойдет до конца?

Качество: HDTV 1080i
Видео: MPEG-4 AVC, ~ 7000 Кбит/с, 1920x1080
Аудио: MP2, 2 ch, 364 Кбит/с
Продолжительность: 11 x ~ 00:44:00
Перевод: Профессиональный (многоголосый, закадровый)

Скриншоты



MediaInfo

General
ID : 1 (0x1)
Complete name : H:\Раздачи 3\Голые и напуганные XL s03 1080i HitWay\01 Голые и напуганные XL HitWay.ts
Format : MPEG-TS
File size : 2.36 GiB
Duration : 44 min 3 s
Overall bit rate mode : Variable
Overall bit rate : 7 668 kb/s
Video
ID : 224 (0xE0)
Menu ID : 1 (0x1)
Format : AVC
Format/Info : Advanced Video Codec
Format profile : High@L4.2
Format settings : CABAC / 3 Ref Frames
Format settings, CABAC : Yes
Format settings, ReFrames : 3 frames
Codec ID : 27
Duration : 44 min 3 s
Bit rate mode : Constant
Bit rate : 7 000 kb/s
Width : 1 920 pixels
Height : 1 080 pixels
Display aspect ratio : 16:9
Frame rate : 50.000 FPS
Standard : PAL
Color space : YUV
Chroma subsampling : 4:2:0
Bit depth : 8 bits
Scan type : Progressive
Bits/(Pixel*Frame) : 0.068
Stream size : 2.12 GiB (90%)
Color range : Limited
Color primaries : BT.709
Transfer characteristics : BT.709
Matrix coefficients : BT.709
Audio
ID : 4097 (0x1001)
Menu ID : 1 (0x1)
Format : MPEG Audio
Format version : Version 1
Format profile : Layer 2
Codec ID : 3
Duration : 44 min 3 s
Bit rate mode : Constant
Bit rate : 384 kb/s
Channel(s) : 2 channels
Sampling rate : 48.0 kHz
Frame rate : 41.667 FPS (1152 SPF)
Compression mode : Lossy
Delay relative to video : 24 ms
Stream size : 121 MiB (5%)
Language : English

Название серий

01. Дивный новый мир. (спецвыпуск)
02. Сердце тьмы.
03. То, что скрыто от посторонних глаз.
04. Сломленные.
05. Инфекция.
06. Столкновение миров.
07. Наша сила - в единстве.
08. Забытый всеми.
09. Последний бой.
10. Незаконченное дело. (спецвыпуск)
11. Тройная угроза. (спецвыпуск)
Благодарю за отличный постер ValkiriaGF
Релиз от:
[Profile] [PM]
Display posts:    
Reply to topic

Current time is: 23-May 08:52

All times are UTC + 3



You cannot post new topics in this forum
You cannot reply to topics in this forum
You cannot edit your posts in this forum
You cannot delete your posts in this forum
You cannot vote in polls in this forum
You cannot attach files in this forum
You cannot download files in this forum