Discovery. Взрывая историю / Blowing up History [2 сезон: 1-12 серии из 12] (2017) HDTV 1080i

Reply to topic
 
Author Message

Starik60 ®

Gender: Male

Longevity: 9 months 12 days

Posts: 148

Location: Москва, Россия

Post 26-Nov-2018 17:43

[Quote]

Взрывая историю / Blowing up History
Год выпуска: 2017
Жанр: Документальный, наука, история, археология
Выпущено: США, Discovery Channel
Режиссер: Мартин Горст, Джеймс Франклин
В ролях: Эдит Холл, Гленн Корбетт, Сотирис Трипоскуфис, Дэвид Граф, Василики Элефтериу
О фильме: Глядя на дошедшие до нас памятники древних цивилизаций, трудно поверить, что задолго до появления современных технологий и мощной строительной техники удавалось возводить столь величественные сооружения. В новом сезоне программы Discovery Channel «Взрывая историю» мы попробуем найти ответ на вопрос, как архитекторам и строителям давних эпох удавалось опередить свое время. С помощью компьютерных технологий здания будут разобраны буквально по кирпичикам, чтобы проследить их судьбу, а заодно выяснить, что скрывают каменные стены. В центре внимания окажутся загадочные памятники Древнего Египта: гробница Тутанхамона, знаменитый Сфинкс в Гизе и Карнакский храм. Но и это не всё! Нам предстоит разгадать тайны затерянных пирамид и храмов в непроходимых джунглях, потерянного замка короля Артура и Стоунхенджа.

Качество: HDTV 1080i
Видео: MPEG-4 AVC, ~ 7000 Кбит/с, 1920x1080
Аудио: MP2, 2 ch, 224 Кбит/с
Продолжительность: 12 x ~ 00:44:00
Перевод: Профессиональный (одноголосый, закадровый)

Скриншоты

MediaInfo

General
ID : 1 (0x1)
Complete name : H:\Раздачи 3\Взрывая историю s02 1080i HitWay\01 Взрывая историю s02 1080i HitWay.ts
Format : MPEG-TS
File size : 2.28 GiB
Duration : 43 min 39 s
Overall bit rate mode : Variable
Overall bit rate : 7 481 kb/s
Video
ID : 224 (0xE0)
Menu ID : 1 (0x1)
Format : AVC
Format/Info : Advanced Video Codec
Format profile : High@L4.2
Format settings : CABAC / 3 Ref Frames
Format settings, CABAC : Yes
Format settings, ReFrames : 3 frames
Codec ID : 27
Duration : 43 min 39 s
Bit rate mode : Constant
Bit rate : 7 000 kb/s
Width : 1 920 pixels
Height : 1 080 pixels
Display aspect ratio : 16:9
Frame rate : 50.000 FPS
Standard : PAL
Color space : YUV
Chroma subsampling : 4:2:0
Bit depth : 8 bits
Scan type : Progressive
Bits/(Pixel*Frame) : 0.068
Stream size : 2.10 GiB (92%)
Color range : Limited
Color primaries : BT.709
Transfer characteristics : BT.709
Matrix coefficients : BT.709
Audio
ID : 4097 (0x1001)
Menu ID : 1 (0x1)
Format : MPEG Audio
Format version : Version 1
Format profile : Layer 2
Codec ID : 3
Duration : 43 min 39 s
Bit rate mode : Constant
Bit rate : 224 kb/s
Channel(s) : 2 channels
Sampling rate : 48.0 kHz
Frame rate : 41.667 FPS (1152 SPF)
Compression mode : Lossy
Delay relative to video : 16 ms
Stream size : 70.0 MiB (3%)
Language : English

Название серий

01. Погребенные секреты Тутанхамона.
02. Тайная история Сфинкса.
03. Проклятие кровавых пирамид.
04. Тайны великого храма Древнего Египта.
05. Храмы, затерянные в джунглях.
06. В поисках замка короля Артура.
07. Призраки Стоунхенджа.
08. Секс, ложь и Тадж-Махал.
09. Покинутый город инков.
10. Тайны Терракотовой армии.
11. Потерянный мир Колизея.
12. Город, затерянный в пустыне.
Благодарю за отличный постер ValkiriaGF
Релиз от:
[Profile] [PM]
Display posts:    
Reply to topic

Current time is: 24-Aug 15:38

All times are UTC + 3



You cannot post new topics in this forum
You cannot reply to topics in this forum
You cannot edit your posts in this forum
You cannot delete your posts in this forum
You cannot vote in polls in this forum
You cannot attach files in this forum
You cannot download files in this forum