Discovery. Взрывая историю / Blowing up History [3 сезон: 1-13 серии из 13] (2018) HDTV 1080p от GeneralFilm

Ответить на тему
 
Автор Сообщение

Starik60 ®

Пол: Мужской

Стаж: 4 месяца 9 дней

Сообщений: 119

Откуда: Москва, Россия

Создавать темы 26-Ноя-2018 17:56

[Цитировать]

Взрывая историю / Blowing up History
Год выпуска: 2018
Жанр: Документальный, наука, история, археология
Выпущено: США, Discovery Channel
Режиссер: Мартин Горст, Джеймс Франклин
В ролях: Эдит Холл, Гленн Корбетт, Сотирис Трипоскуфис, Дэвид Граф, Василики Элефтериу
О фильме: Как строили самые известные здания Древнего мира и Средних веков? Как архитекторам той эпохи удалось опередить свое время? Трудно поверить, что столь колоссальные сооружения возводились задолго до появления современных технологий и мощной строительной техники. С помощью компьютерной графики мы «разберем по кирпичикам» старинные постройки и узнаем, как, из чего и для чего возводили древнеегипетские и древнегреческие храмы, а также величественные соборы Европы. Используя данные археологических раскопок и результаты поверхностного сканирования, мы постараемся выяснить, что сокрыто в конструкциях самых знаменитых зданий мира и посмотрим на них в разрезе!

Качество: HDTV 1080p
Видео: MPEG-4 AVC, ~ 7000 Кбит/с, 1920x1080
Аудио: MP2, 2 ch, 384 Кбит/с
Продолжительность: 13 x ~ 00:44:00
Перевод: Профессиональный (двухголосый, закадровый)

Скриншоты



MediaInfo

General
ID : 1 (0x1)
Complete name : H:\Раздачи 3\Взрывая историю s03 1080p GeneralFilm\01 Взрывая историю GeneralFilm.ts
Format : MPEG-TS
File size : 2.34 GiB
Duration : 43 min 45 s
Overall bit rate mode : Variable
Overall bit rate : 7 670 kb/s
Video
ID : 224 (0xE0)
Menu ID : 1 (0x1)
Format : AVC
Format/Info : Advanced Video Codec
Format profile : High@L4.2
Format settings : CABAC / 3 Ref Frames
Format settings, CABAC : Yes
Format settings, ReFrames : 3 frames
Codec ID : 27
Duration : 43 min 45 s
Bit rate mode : Constant
Bit rate : 7 000 kb/s
Width : 1 920 pixels
Height : 1 080 pixels
Display aspect ratio : 16:9
Frame rate : 50.000 FPS
Standard : PAL
Color space : YUV
Chroma subsampling : 4:2:0
Bit depth : 8 bits
Scan type : Progressive
Bits/(Pixel*Frame) : 0.068
Stream size : 2.11 GiB (90%)
Color range : Limited
Color primaries : BT.709
Transfer characteristics : BT.709
Matrix coefficients : BT.709
Audio
ID : 4097 (0x1001)
Menu ID : 1 (0x1)
Format : MPEG Audio
Format version : Version 1
Format profile : Layer 2
Codec ID : 3
Duration : 43 min 45 s
Bit rate mode : Constant
Bit rate : 384 kb/s
Channel(s) : 2 channels
Sampling rate : 48.0 kHz
Frame rate : 41.667 FPS (1152 SPF)
Compression mode : Lossy
Delay relative to video : 8 ms
Stream size : 120 MiB (5%)
Language : English

Название серий

01. Викинги, город мертвецов.
02. Америка, забытые пирамиды.
03. Запретный город фараонов.
04. Статуя Свободы: новые секреты.
05. Охота за Антлантидой.
06. Взрывая историю
07. Гнев Аттилы.
08. Помпеи.
09. Утраченные обелиски Египта.
10. Ломанная пирамида.
11. Титаник.
13. Последние дни империи Инков.
Благодарю за отличный постер ValkiriaGF
Релиз от:
[Профиль] [ЛС]
Показать сообщения:    
Ответить на тему

Текущее время: 22-Мар 10:28

Часовой пояс: UTC + 3



Вы не можете начинать темы
Вы не можете отвечать на сообщения
Вы не можете редактировать свои сообщения
Вы не можете удалять свои сообщения
Вы не можете голосовать в опросах
Вы не можете прикреплять файлы к сообщениям
Вы не можете скачивать файлы