Мент в законе [2 сезон: 1-12 серии из 12] (2010) SATRip от Files-x

Reply to topic
 
Author Message

papa1951deda ®

Gender: Male

Longevity: 9 months 26 days

Posts: 290

Location: Казахстан

Post 26-Nov-2018 20:33

[Quote]

Мент в законе 2 Год выпуска: 2010
Жанр: Криминал, детектив
Выпущено: Студия «Центр кинопроизводства» по заказу кинокомпании «Форвард-Фильм»
Режиссёр: Рустам Уразаев
В ролях: Сергей Плотников, Михаил Бабичев, Виктория Герасимова, Константин Глушков, Ольга Дибцева, Владимир Лаптев, Игорь Литовкин, Сергей Любимов, Елена Любимова, Сергей Пиотровский
О фильме: Степан Круча, теперь уже подполковник, возглавляет уголовный розыск Битовского ОВД. Здесь, в райском уголке для "денежных мешков" - московской окраине Битово - Круча - царь и бог, он не потерпит беспредела по всей территории. Он хозяин на своей "земле". Бандиты дали ему прозвище - "Волчара" и трудно сказать, чего в этом больше - страха или уважения. А хватка у него мертвая. У него свои законы. Суд может оправдать, но подполковник Круча из-под земли достанет и накажет.
Качество: SATRip
Видео: XviD , ~ 1477 Кбит/с, 720x400, 25 кадр/с
Аудио: MP3, 2 ch, 192 Кбит/с
Продолжительность: 12 x ~ 00:45:00
Перевод: Не требуется
Субтитры: Нет

Скриншоты

MediaInfo

General
Complete name : D:\моё видио\Ment.v.zakone-2.2010.XviD.SATRip.Files-x\Ment.v.zakone-2.01.seriya.2010.XviD.SATRip.Files-x.avi
Format : AVI
Format/Info : Audio Video Interleave
File size : 550 MiB
Duration : 46mn 39s
Overall bit rate : 1 648 Kbps
Writing application : VirtualDubMod 1.5.10.3 | www.virtualdub-fr.org || (build 2550/release)
Writing library : VirtualDubMod build 2550/release
Video
ID : 0
Format : MPEG-4 Visual
Format profile : Advanced Simple@L5
Format settings, BVOP : 1
Format settings, QPel : No
Format settings, GMC : No warppoints
Format settings, Matrix : Default (H.263)
Codec ID : XVID
Codec ID/Hint : XviD
Duration : 46mn 39s
Bit rate : 1 447 Kbps
Width : 720 pixels
Height : 400 pixels
Display aspect ratio : 16:9
Frame rate : 25.000 fps
Color space : YUV
Chroma subsampling : 4:2:0
Bit depth : 8 bits
Scan type : Progressive
Compression mode : Lossy
Bits/(Pixel*Frame) : 0.201
Stream size : 483 MiB (88%)
Writing library : XviD 1.2.1 (UTC 2008-12-04)
Audio
ID : 1
Format : MPEG Audio
Format version : Version 1
Format profile : Layer 3
Codec ID : 55
Codec ID/Hint : MP3
Duration : 46mn 39s
Bit rate mode : Constant
Bit rate : 192 Kbps
Channel(s) : 2 channels
Sampling rate : 48.0 KHz
Compression mode : Lossy
Stream size : 64.1 MiB (12%)
Alignment : Aligned on interleaves
Interleave, duration : 40 ms (1.00 video frame)
Interleave, preload duration : 504 ms
Writing library : LAME3.98r
Encoding settings : -m s -V 4 -q 2 -lowpass 18.6 -b 192
Релиз от:
[Profile] [PM]
Display posts:    
Reply to topic

Current time is: 17-Sep 00:27

All times are UTC + 3



You cannot post new topics in this forum
You cannot reply to topics in this forum
You cannot edit your posts in this forum
You cannot delete your posts in this forum
You cannot vote in polls in this forum
You cannot attach files in this forum
You cannot download files in this forum