Опер по вызову [1-2 сезоны: 1-28 серии из 28] (2018) WEB-DLRip от Files-x

Reply to topic
 
Author Message

Nicodem ®

Gender: Male

Longevity: 10 months 28 days

Posts: 248

Post 18-Nov-2018 00:19

[Quote]

Опер по вызову
Год выпуска: 2018
Жанр: Детектив, криминал
Выпущено: Украина, "RunGo Studio"
Режиссер: Тарас Ткаченко
В ролях: Павел Вишняков, Слава Красовская, Артём Мартынишин, Александр Пожарский, Александр Игнатуша, Валентина Ищенко, Василий Черношкур, Иван Залуский, Дмитрий Гаврилов (II), Ася Белая, Богдан Олейник, Сергей Гаврилюк (II), Владислав Тененбаум, Юлия Чепурко, Вадим Залесский, Виталий Копилец, Юлия Гапчук, Руслан Никоненко, Александр Спирин, Владимир Гладкий, Михаил Федорченко, Александр Мельник (II), Владимир Кокотунов, Александр Дулин, Елена Вознесенская (II), Юрий Кулинич, Григорий Сирота, Юрий Потапенко, Татьяна Лаврушко, Павел Авилов, Евгений Поляков (II), Вячеслав Бабенков (II), Нина Набока, Валерий Гнеушев, Михаил Мерзликин (II), Игорь Марусяк, Сергей Деньга, Андрей Клименков, Виктор Дем
О фильме: "Опер по вызову" - это остросюжетный сериал про сообразительного, харизматичного, опытного капитана Артема Трофимова. Трагическая гибель невесты в корне меняет его жизнь, а желание наказать убийцу приводит его в Департамент криминальной разведки. Работая под прикрытием в Музее милиции, Артем распутывает сложнейшие криминальные головоломки, прибегая к манипуляциям, шпионажу и мастерства перевоплощений. Помогают Трофимову психолог-криминалист Лидия, аналитик Слава, знаток оружия и единоборств Роман и начальник ДКР по прозвищу "Дед".

Качество: WEB-DLRip
Видео: XviD, ~ 1611 Кбит/с, 720x400, 25 Кадр/с
Аудио: AC3, 2 ch, 192 Кбит/с
Продолжительность: 28 х ~ 00:47:00
Перевод: Не требуется
Cубтитры: нет

Скриншоты


MediaInfo

Общее
Полное имя : C:\Users\DOM\Downloads\Oper.po.vyzovu.2018.WEB-DLRip.Files-x\01.Oper.po.vyzovu.2018.WEB-DLRip.Files-x.avi
Формат : AVI
Формат/Информация : Audio Video Interleave
Размер файла : 600 Мбайт
Продолжительность : 46 м.
Общий поток : 1813 Кбит/сек
Программа кодирования : VirtualDubMod 1.5.10.3 | www.virtualdub-fr.org || (build 2550/release)
Библиотека кодирования : VirtualDubMod build 2550/release
Видео
Идентификатор : 0
Формат : MPEG-4 Visual
Профиль формата : Advanced Simple@L5
Параметр BVOP формата : 1
Параметр QPel формата : Нет
Параметр GMC формата : Без точки перехода
Параметр матрицы формата : Выборочная
Идентификатор кодека : XVID
Идентификатор кодека/Подсказка : XviD
Продолжительность : 46 м.
Битрейт : 1611 Кбит/сек
Ширина : 720 пикс.
Высота : 400 пикс.
Соотношение сторон : 16:9
Частота кадров : 25,000 кадр/сек
Цветовое пространство : YUV
Подвыборка цветности : 4:2:0
Битовая глубина : 8 бит
Тип развёртки : Прогрессивная
Метод сжатия : С потерями
Бит/(Пиксели*Кадры) : 0.224
Размер потока : 533 Мбайт (89%)
Библиотека кодирования : XviD 73
Аудио
Идентификатор : 1
Формат : AC-3
Формат/Информация : Audio Coding 3
Расширение режима : CM (complete main)
Идентификатор кодека : 2000
Продолжительность : 46 м.
Вид битрейта : Постоянный
Битрейт : 192 Кбит/сек
Каналы : 2 канала
Расположение каналов : Front: L R
Частота : 48,0 КГц
Битовая глубина : 16 бит
Метод сжатия : С потерями
Размер потока : 63,5 Мбайт (11%)
Выравнивание : Разделение по промежуткам
Продолжительность промежутка : 40 мс. (1,00 видеокадр)
Время предзагрузки промежутка : 500 ms

Содержание

1 СЕЗОН
01 серия "Опер по вызову"
02 серия "Парашютисты"
03 серия "Дыхание смерти"
04 серия "Приемлемые потери"
05 серия "Умереть нельзя воскреснуть"
06 серия "Жало скорпиона"
07 серия "Скелеты в шкафу" 1 часть
08 серия "Скелеты в шкафу" 2 часть
09 серия "Деяние апостолов"
10 серия "Лабораторные крысы"
11 серия "Охота на звезду"
12 серия "Смерть по наследству"
13 серия "Братская могила"
14 серия "Родители и деды"
15 серия "Шакалы в галстуках"
16 серия "Гламурные рабыни"
2 СЕЗОН
17 серия "Кто следующий?"
18 серия "Возвращение короля"
19 серия "Казино «Рояль»"
20 серия "Ангел-хранитель"
21 серия "Зубной фей"
22 серия "Повелитель мух"
23 серия "Восприемник"
24 серия "Человек человеку волк"
25 серия "Дуэль"
26 серия "Кровавые алмазы"
27 серия "Апокалипсис в заповеднике"
28 серия "Захват"
Релиз от:
[Profile] [PM]
Display posts:    
Reply to topic

Current time is: 16-Oct 13:47

All times are UTC + 3



You cannot post new topics in this forum
You cannot reply to topics in this forum
You cannot edit your posts in this forum
You cannot delete your posts in this forum
You cannot vote in polls in this forum
You cannot attach files in this forum
You cannot download files in this forum