Мегрэ на Монмартре / Maigret in Montmartre (2017) HDTVRip

Ответить на тему
 
Автор Сообщение

Monk ®

Пол: Мужской

Стаж: 4 месяца 11 дней

Сообщений: 4327

Откуда: Казань

Создавать темы 26-Ноя-2018 20:46

[Цитировать]

Мегрэ на Монмартре / Maigret in Montmartre Год выпуска: 2017
Жанр: Драма, криминал, детектив
Выпущено: Великобритания, Maigret Productions
Режиссер: Тадеус О'Салливан
В ролях: Роуэн Аткинсон, Марк Хип, Люси Коху, Дуглас Ходж, Себастьян де Соуса, Лоррейн Эшборн, Кэсси Клер, Шон Дингуолл, Лео Стаар, Сара Кестелмен
О фильме: Мегрэ исследует случайные убийства графини и шоу-девушки и обнаруживает темную тайну, которая связывает их прошлые жизни в Гранд-отеле в Ницце.

Качество: HDTVRip
Видео: XviD, 2007 Кбит/с, 720x400
Аудио: AC3, 2 ch, 192 Кбит/с
Продолжительность: 01:33:22
Перевод: Любительский многоголосый [HDrezka Studio]

Скриншоты

MediaInfo

Общее
Полное имя : E:\NNM\Мегрэ на Монмартре\Maigret in montmartre 2017 HDTVRip 1400.avi
Формат : AVI
Формат/Информация : Audio Video Interleave
Профиль формата : OpenDML
Размер файла : 1,44 Гбайт
Продолжительность : 1 ч. 33 м.
Общий поток : 2211 Кбит/сек
Видео
Идентификатор : 0
Формат : MPEG-4 Visual
Профиль формата : Advanced Simple@L5
Настройки формата : BVOP1
Параметр BVOP формата : 1
Параметр QPel формата : Нет
Параметр GMC формата : Без точки перехода
Параметр матрицы формата : Default (H.263)
Идентификатор кодека : XVID
Идентификатор кодека/Подсказка : XviD
Продолжительность : 1 ч. 33 м.
Битрейт : 2007 Кбит/сек
Ширина : 720 пикселей
Высота : 400 пикселей
Соотношение сторон : 16:9
Частота кадров : 24,000 кадра/сек
Цветовое пространство : YUV
Субдискретизация насыщенности : 4:2:0
Битовая глубина : 4 бит
Тип развёртки : Прогрессивная
Метод сжатия : С потерями
Бит/(Пиксели*Кадры) : 0.290
Размер потока : 1,31 Гбайт (91%)
Библиотека кодирования : XviD 1.2.1 (UTC 2008-12-04)
Аудио
Идентификатор : 1
Формат : AC-3
Формат/Информация : Audio Coding 3
Идентификатор кодека : 2000
Продолжительность : 1 ч. 33 м.
Вид битрейта : Постоянный
Битрейт : 192 Кбит/сек
Каналы : 2 канала
Расположение каналов : Front: L R
Частота : 48,0 КГц
Частота кадров : 31,250 кадров/сек (1536 SPF)
Битовая глубина : 16 бит
Метод сжатия : С потерями
Размер потока : 128 Мбайт (9%)
Выравнивание : Соединение по промежуткам
Продолжительность промежутка : 32 мс. (0,77 видеокадр)
ServiceKind/String : Complete Main
[Профиль] [ЛС]
Показать сообщения:    
Ответить на тему

Текущее время: 25-Мар 13:52

Часовой пояс: UTC + 3



Вы не можете начинать темы
Вы не можете отвечать на сообщения
Вы не можете редактировать свои сообщения
Вы не можете удалять свои сообщения
Вы не можете голосовать в опросах
Вы не можете прикреплять файлы к сообщениям
Вы не можете скачивать файлы