Сутенёр / Pimp (2018) WEB-DL 1080p

Reply to topic
 
Author Message

Monk ®

Gender: Male

Longevity: 11 months

Posts: 9115

Location: Казань

Post 26-Nov-2018 21:27

[Quote]

Сутенёр / Pimp Год выпуска: 2018
Жанр: Драма
Выпущено: США, Adrenaline Entertainment
Режиссер: Кристин Крокос
В ролях: Ванесса Морган, Хейли Рэмм, Кеке Палмер, Эди Гатеги, Онжаню Эллис, Лирика Окано, Пейдж Серси, DMX, Эшли Бланкеншип
О фильме: Посреди гнетущих кварталов Бронкса разворачивается любовная история. Боевая девушка, сутенёр, по имени Винсди, научилась всему от отца. И когда он умирает, она отправляется на поиски своей матери, работающей проституткой и подруги детства, Никки.

Качество: WEB-DL 1080p
Видео: MPEG-4 AVC, 4610 Кбит/с, 1920х804
Аудио: Русский (AC3, 2 ch, 192 Кбит/с), английский AC3, 6 ch, 384 Кбит/с)
Продолжительность: 01:25:29
Перевод: Любительский двухголосый [HiWayGrope]
Субтитры: Английские

Скриншоты



MediaInfo

General
Unique ID : 173900043482543177495653941846359055492 (0x82D3EE1B838836AD78BE51DAA5FA9C84)
Complete name : G:\Pimp.2018.WEB-DL.1080p.mkv
Format : Matroska
Format version : Version 4 / Version 2
File size : 3.10 GiB
Duration : 1 h 25 min
Overall bit rate : 5 188 kb/s
Encoded date : UTC 2019-07-20 10:23:07
Writing application : mkvmerge v20.0.0 ('I Am The Sun') 64-bit
Writing library : libebml v1.3.5 + libmatroska v1.4.8
Video
ID : 1
Format : AVC
Format/Info : Advanced Video Codec
Format profile : High@L4
Format settings : CABAC / 5 Ref Frames
Format settings, CABAC : Yes
Format settings, RefFrames : 5 frames
Codec ID : V_MPEG4/ISO/AVC
Duration : 1 h 25 min
Bit rate : 4 610 kb/s
Width : 1 920 pixels
Height : 804 pixels
Display aspect ratio : 2.40:1
Frame rate mode : Constant
Frame rate : 23.976 (24000/1001) FPS
Color space : YUV
Chroma subsampling : 4:2:0
Bit depth : 8 bits
Scan type : Progressive
Bits/(Pixel*Frame) : 0.125
Stream size : 2.75 GiB (89%)
Language : English
Default : Yes
Forced : No
Color range : Limited
Color primaries : BT.709
Transfer characteristics : BT.709
Matrix coefficients : BT.709
Audio #1
ID : 2
Format : AC-3
Format/Info : Audio Coding 3
Codec ID : A_AC3
Duration : 1 h 25 min
Bit rate mode : Constant
Bit rate : 192 kb/s
Channel(s) : 2 channels
Channel positions : Front: L R
Sampling rate : 48.0 kHz
Frame rate : 31.250 FPS (1536 SPF)
Bit depth : 16 bits
Compression mode : Lossy
Stream size : 117 MiB (4%)
Title : DVO HiWayGrope
Language : Russian
Service kind : Complete Main
Default : Yes
Forced : No
Audio #2
ID : 3
Format : AC-3
Format/Info : Audio Coding 3
Codec ID : A_AC3
Duration : 1 h 25 min
Bit rate mode : Constant
Bit rate : 384 kb/s
Channel(s) : 6 channels
Channel positions : Front: L C R, Side: L R, LFE
Sampling rate : 48.0 kHz
Frame rate : 31.250 FPS (1536 SPF)
Bit depth : 16 bits
Compression mode : Lossy
Stream size : 235 MiB (7%)
Language : English
Service kind : Complete Main
Default : No
Forced : No
Text
ID : 4
Format : UTF-8
Codec ID : S_TEXT/UTF8
Codec ID/Info : UTF-8 Plain Text
Duration : 1 h 19 min
Bit rate : 66 b/s
Count of elements : 1356
Stream size : 38.4 KiB (0%)
Language : English
Default : No
Forced : No
Menu
00:00:00.000 : en:1
00:06:25.000 : en:2
00:13:33.000 : en:3
00:20:01.000 : en:4
00:28:01.000 : en:5
00:33:24.000 : en:6
00:42:03.000 : en:7
00:49:54.000 : en:8
00:58:14.000 : en:9
01:05:57.000 : en:10
01:11:28.000 : en:11
01:19:02.000 : en:12
[Profile] [PM]
Display posts:    
Reply to topic

Current time is: 13-Nov 21:35

All times are UTC + 3



You cannot post new topics in this forum
You cannot reply to topics in this forum
You cannot edit your posts in this forum
You cannot delete your posts in this forum
You cannot vote in polls in this forum
You cannot attach files in this forum
You cannot download files in this forum