Попробуй подкати / Tout le monde debout (2018) HDRip AVC | iTunes

Reply to topic
 
Author Message

Monk ®

Gender: Male

Longevity: 1 year

Posts: 9115

Location: Казань

Post 26-Nov-2018 21:41

[Quote]

Попробуй подкати / Tout le monde debout Год выпуска: 2018
Жанр: Мелодрама, комедия
Выпущено: Франция, Бельгия, Ciné, Entourage Pictures, Gaumont, Investisseurs Tax Shelter, La Boétie Films
Режиссер: Франк Дюбоск
В ролях: Франк Дюбоск, Александра Лами, Эльза Зильберштейн, Жерар Дармон, Каролин Англад, Лоран Бато, Клод Брассёр, Франсуа-Ксавье Демезон, Летиция Белличчини, Кристоф Канар
О фильме: Главный герой фильма – успешный бизнесмен, бабник и неисправимый обманщик Джоселин. Он не пропускает ни одной юбки и готов на самую гнусную ложь лишь бы заманить очередную женщину в свою постель. Однажды он решил притвориться инвалидом-колясочником, чтобы подкатить к красавице Джули. Однако позднее женщина знакомит его со своей младшей сестрой Флоренс, которая на самом деле прикована к инвалидному креслу. Теперь герою придётся постараться, чтобы заполучить желаемое.

Качество: HDRip AVC
Видео: MPEG-4 AVC, 1323 Kбит/с, 1024x428
Аудио: Русский (AC3, 6 ch, 384 Кбит/с), французский (AC3, 6 ch, 448 Кбит/с)
Продолжительность: 01:47:34
Перевод: Дублированный [iTunes]

Скриншоты



MediaInfo

Общее
Уникальный идентификатор : 85478469416038488133010881349134213688 (0x404E8DEC2AC5F55B27374E7003C66238)
Полное имя : F:\OlLanDGroup\Tout.Le.Monde.Debout.2018.BDRip(AVC).OlLanDGroup.mkv
Формат : Matroska
Версия формата : Version 4 / Version 2
Размер файла : 1,62 Гбайт
Продолжительность : 1 ч. 47 м.
Общий поток : 2157 Кбит/сек
Название фильма : Tout.Le.Monde.Debout.2018 #TorpedoUK#
Дата кодирования : UTC 2018-08-02 12:11:22
Программа кодирования : mkvmerge v25.0.0 ('Prog Noir') 64-bit
Библиотека кодирования : libebml v1.3.6 + libmatroska v1.4.9
Видео
Идентификатор : 1
Формат : AVC
Формат/Информация : Advanced Video Codec
Профиль формата : High@L4.1
Параметр CABAC формата : Да
Параметр ReFrames формата : 10 кадров
Идентификатор кодека : V_MPEG4/ISO/AVC
Продолжительность : 1 ч. 47 м.
Битрейт : 1323 Кбит/сек
Ширина : 1024 пикселя
Высота : 428 пикселей
Соотношение сторон : 2,40:1
Режим частоты кадров : Постоянный
Частота кадров : 24,000 кадра/сек
Цветовое пространство : YUV
Субдискретизация насыщенности : 4:2:0
Битовая глубина : 8 бит
Тип развёртки : Прогрессивная
Бит/(Пиксели*Кадры) : 0.126
Размер потока : 1018 Мбайт (61%)
Библиотека кодирования : x264 core 146 r2538 121396c
Настройки программы : cabac=1 / ref=10 / deblock=1:-3:-3 / analyse=0x3:0x113 / me=umh / subme=11 / psy=1 / psy_rd=0.99:0.05 / mixed_ref=1 / me_range=48 / chroma_me=1 / trellis=2 / 8x8dct=1 / cqm=0 / deadzone=21,11 / fast_pskip=1 / chroma_qp_offset=-3 / threads=6 / lookahead_threads=1 / sliced_threads=0 / nr=0 / decimate=1 / interlaced=0 / bluray_compat=0 / constrained_intra=0 / bframes=10 / b_pyramid=2 / b_adapt=2 / b_bias=0 / direct=3 / weightb=1 / open_gop=0 / weightp=2 / keyint=240 / keyint_min=24 / scenecut=40 / intra_refresh=0 / rc_lookahead=40 / rc=2pass / mbtree=1 / bitrate=1323 / ratetol=1.0 / qcomp=0.60 / qpmin=0 / qpmax=69 / qpstep=4 / cplxblur=20.0 / qblur=0.5 / vbv_maxrate=50000 / vbv_bufsize=62500 / nal_hrd=none / filler=0 / ip_ratio=1.40 / aq=1:1.00
Язык : English
Default : Да
Forced : Нет
Аудио #1
Идентификатор : 2
Формат : AC-3
Формат/Информация : Audio Coding 3
Расширение режима : CM (complete main)
Параметр Endianness формата : Big
Идентификатор кодека : A_AC3
Продолжительность : 1 ч. 47 м.
Вид битрейта : Постоянный
Битрейт : 384 Кбит/сек
Каналы : 6 каналов
Расположение каналов : Front: L C R, Side: L R, LFE
Частота : 48,0 КГц
Частота кадров : 31,250 кадров/сек (1536 spf)
Битовая глубина : 16 бит
Метод сжатия : С потерями
Размер потока : 295 Мбайт (18%)
Заголовок : iTunes
Язык : Russian
Default : Да
Forced : Нет
Аудио #2
Идентификатор : 3
Формат : AC-3
Формат/Информация : Audio Coding 3
Расширение режима : CM (complete main)
Параметр Endianness формата : Big
Идентификатор кодека : A_AC3
Продолжительность : 1 ч. 47 м.
Вид битрейта : Постоянный
Битрейт : 448 Кбит/сек
Каналы : 6 каналов
Расположение каналов : Front: L C R, Side: L R, LFE
Частота : 48,0 КГц
Частота кадров : 31,250 кадров/сек (1536 spf)
Битовая глубина : 16 бит
Метод сжатия : С потерями
Размер потока : 345 Мбайт (21%)
Заголовок : Original
Язык : French
Default : Нет
Forced : Нет
Меню
00:00:00.000 : en:00:00:00.000
00:09:54.625 : en:00:09:54.625
00:17:21.083 : en:00:17:21.083
00:27:31.208 : en:00:27:31.208
00:35:17.333 : en:00:35:17.333
00:44:15.792 : en:00:44:15.792
00:55:18.208 : en:00:55:18.208
01:04:36.458 : en:01:04:36.458
01:12:49.792 : en:01:12:49.792
01:21:02.208 : en:01:21:02.208
01:29:16.125 : en:01:29:16.125
01:36:07.750 : en:01:36:07.750
[Profile] [PM]
Display posts:    
Reply to topic

Current time is: 23-Nov 05:50

All times are UTC + 3



You cannot post new topics in this forum
You cannot reply to topics in this forum
You cannot edit your posts in this forum
You cannot delete your posts in this forum
You cannot vote in polls in this forum
You cannot attach files in this forum
You cannot download files in this forum