Как это заканчивается / How It Ends (2018) WEB-DLRip AVC

Reply to topic
 
Author Message

Monk ®

Gender: Male

Longevity: 6 months 8 days

Posts: 6383

Location: Казань

Post 26-Nov-2018 22:05

[Quote]

Как это заканчивается / How It Ends Год выпуска: 2018
Жанр: Фантастика, боевик, триллер, приключения
Выпущено: Канада, США, Paul Schiff Productions, Sierra / Affinity
Режиссер: Дэвид М. Розенталь
В ролях: Тео Джеймс, Катерина Грэхэм, Керри Бише, Форест Уитакер, Грэйс Дав, Лэни МакОли, Марк О'Брайэн, Нэнси Сорел, АрДжей Фезерстонхо, Джош Круддастудия
О фильме: По всей стране прогремели взрывы, возможно, землетрясения. Нет связи и электричества. Повсюду огонь и пепел. Люди кидаются друг на друга с оружием ради канистры с бензином. Во всем этом апокалиптическом безумии отчаянный муж пытается вернуться к беременной жене, пока не начался полнейший хаос.

Качество: WEB-DLRip AVC
Видео: MPEG-4 AVC, ~ 1406 Кбит/с, 1024x430
Аудио: Русский (AC3, 6 ch, 448 Кбит/с), английский (E-AC3, 6 ch, 448 Кбит/с)
Продолжительность: 01:52:39
Перевод: Профессиональный многоголосый [HDrezka Studio]
Субтитры: Русские, английские

Скриншоты



MediaInfo

Общее
Уникальный идентификатор : 230848395246713967483503965478437358372 (0xADABC8A0B0B44D4834F41B9C925D8B24)
Полное имя : F:\OlLanDGroup\How.It.Ends.2018.WEB-DL(AVC).OlLanDGroup.mkv
Формат : Matroska
Версия формата : Version 4 / Version 2
Размер файла : 1,46 Гбайт
Продолжительность : 1 ч. 52 м.
Общий поток : 1855 Кбит/сек
Название фильма : How.It.Ends.2018 #TorpedoUK#
Дата кодирования : UTC 2018-08-03 15:18:00
Программа кодирования : mkvmerge v25.0.0 ('Prog Noir') 64-bit
Библиотека кодирования : libebml v1.3.6 + libmatroska v1.4.9
Видео
Идентификатор : 1
Формат : AVC
Формат/Информация : Advanced Video Codec
Профиль формата : High@L4.1
Параметр CABAC формата : Да
Параметр ReFrames формата : 10 кадров
Идентификатор кодека : V_MPEG4/ISO/AVC
Продолжительность : 1 ч. 52 м.
Битрейт : 1406 Кбит/сек
Ширина : 1024 пикселя
Высота : 430 пикселей
Соотношение сторон : 2,40:1
Режим частоты кадров : Постоянный
Частота кадров : 23,976 (24000/1001) кадра/сек
Цветовое пространство : YUV
Субдискретизация насыщенности : 4:2:0
Битовая глубина : 8 бит
Тип развёртки : Прогрессивная
Бит/(Пиксели*Кадры) : 0.133
Размер потока : 1,11 Гбайт (76%)
Библиотека кодирования : x264 core 146 r2538 121396c
Настройки программы : cabac=1 / ref=10 / deblock=1:-2:-3 / analyse=0x3:0x113 / me=umh / subme=11 / psy=1 / psy_rd=0.95:0.07 / mixed_ref=1 / me_range=48 / chroma_me=1 / trellis=2 / 8x8dct=1 / cqm=0 / deadzone=21,11 / fast_pskip=1 / chroma_qp_offset=-3 / threads=6 / lookahead_threads=1 / sliced_threads=0 / nr=0 / decimate=1 / interlaced=0 / bluray_compat=0 / constrained_intra=0 / bframes=10 / b_pyramid=2 / b_adapt=2 / b_bias=0 / direct=3 / weightb=1 / open_gop=0 / weightp=2 / keyint=240 / keyint_min=23 / scenecut=40 / intra_refresh=0 / rc_lookahead=40 / rc=2pass / mbtree=1 / bitrate=1406 / ratetol=1.0 / qcomp=0.60 / qpmin=0 / qpmax=69 / qpstep=4 / cplxblur=20.0 / qblur=0.5 / vbv_maxrate=50000 / vbv_bufsize=62500 / nal_hrd=none / filler=0 / ip_ratio=1.40 / aq=1:1.00
Default : Да
Forced : Нет
Аудио
Идентификатор : 2
Формат : AC-3
Формат/Информация : Audio Coding 3
Расширение режима : CM (complete main)
Параметр Endianness формата : Big
Идентификатор кодека : A_AC3
Продолжительность : 1 ч. 52 м.
Вид битрейта : Постоянный
Битрейт : 448 Кбит/сек
Каналы : 6 каналов
Расположение каналов : Front: L C R, Side: L R, LFE
Частота : 48,0 КГц
Частота кадров : 31,250 кадров/сек (1536 spf)
Битовая глубина : 16 бит
Метод сжатия : С потерями
Размер потока : 361 Мбайт (24%)
Заголовок : MVO [HDRezka Studio]
Язык : Russian
Default : Да
Forced : Нет
Текст #1
Идентификатор : 3
Формат : UTF-8
Идентификатор кодека : S_TEXT/UTF8
Идентификатор кодека/Информация : UTF-8 Plain Text
Продолжительность : 1 ч. 22 м.
Битрейт : 0 бит/сек
Count of elements : 6
Размер потока : 268 байт (0%)
Заголовок : Forced
Язык : Russian
Default : Да
Forced : Нет
Текст #2
Идентификатор : 4
Формат : UTF-8
Идентификатор кодека : S_TEXT/UTF8
Идентификатор кодека/Информация : UTF-8 Plain Text
Продолжительность : 1 ч. 44 м.
Битрейт : 43 бит/сек
Count of elements : 1040
Размер потока : 33,3 Кбайт (0%)
Заголовок : SDH
Язык : English
Default : Нет
Forced : Нет
[Profile] [PM]
Display posts:    
Reply to topic

Current time is: 23-May 08:54

All times are UTC + 3



You cannot post new topics in this forum
You cannot reply to topics in this forum
You cannot edit your posts in this forum
You cannot delete your posts in this forum
You cannot vote in polls in this forum
You cannot attach files in this forum
You cannot download files in this forum