Ольга [3 сезон: 1-16 серии из 16] (2018) WEBRip 720р от Files-x

Ответить на тему
 
Автор Сообщение

bond74 ®

Пол: Мужской

Стаж: 4 месяца 7 дней

Сообщений: 267

Создавать темы 26-Ноя-2018 23:40

[Цитировать]

Ольга Год выпуска: 2018
Жанр: Комедия
Выпущено: Россия, Good Story Media
Режиссер: Алексей Нужный, Игорь Волошин
В ролях: Гоша Куценко, Тимофей Зайцев, Василий Кортуков, Ксения Суркова, Павел Майков, Яна Троянова, Юлия Серина, Алина Алексеева (II), Мухаммед Абу Ризик, Владимир Кебин, Филипп Ершов
О фильме: Третий сезон «Ольги» отличает повышенная событийность: в каждой серии сюжет может менять ход три-четыре раза, так что не совсем понятно, в какой тупик на этот раз придут герои. И каким образом из него вообще будут выбераться. Юмор имеет терапевтический эффект, ведь относиться всерьез к такому валу проблем попросту вредно для организма. В новых сериях Ольга и компания, как в сказке про репку, продолжат тащить друг друга из болота обыденности и безнадеги, в которое иногда заводит героев необычайно смешная и по-своему счастливая жизнь.
Качество: WEBRip 720p
Видео: MPEG-4 AVC, ~ 3 489 Кбит/с, 1280x720, 25 кадр/с
Аудио: AC3, 2 ch, 192 Кбит/с
Продолжительность: 16 x ~ 00:25:00
Перевод: Не требуется
Субтитры: нет

Скриншоты

MediaInfo

General
Unique ID : 243762784338274903706609292769674257038 (0xB763012B6585D0D2B39AB10C46CDE28E)
Complete name : H:\fiiles x\Ольга .s03. (2018) WEB-DL 720p. Files-x\Olga.s03e10.2018.WEB-DL 720p. Files-x.mkv
Format : Matroska
File size : 603 MiB
Duration : 22mn 26s
Overall bit rate : 3 755 Kbps
Encoded date : UTC 2018-11-20 18:37:45
Writing application : mkvmerge v7.8.0 ('River Man') 32bit built on Apr 3 2015 12:11:22
Writing library : libebml v1.3.1 + libmatroska v1.4.2
Video
ID : 1
Format : AVC
Format/Info : Advanced Video Codec
Format profile : High@L3.1
Format settings, CABAC : Yes
Format settings, ReFrames : 1 frame
Codec ID : V_MPEG4/ISO/AVC
Duration : 22mn 26s
Bit rate : 3 489 Kbps
Width : 1 280 pixels
Height : 720 pixels
Display aspect ratio : 16:9
Frame rate : 25.000 fps
Standard : Component
Color space : YUV
Chroma subsampling : 4:2:0
Bit depth : 8 bits
Scan type : Progressive
Bits/(Pixel*Frame) : 0.151
Stream size : 560 MiB (93%)
Audio
ID : 2
Format : AC-3
Format/Info : Audio Coding 3
Mode extension : CM (complete main)
Codec ID : A_AC3
Duration : 22mn 26s
Bit rate mode : Constant
Bit rate : 192 Kbps
Channel(s) : 2 channels
Channel positions : Front: L R
Sampling rate : 44.1 KHz
Bit depth : 16 bits
Compression mode : Lossy
Delay relative to video : 9ms
Stream size : 30.8 MiB (5%)
Релиз от:

Релиз подготовлен R.G.Files-x

[Профиль] [ЛС]
Показать сообщения:    
Ответить на тему

Текущее время: 22-Мар 10:26

Часовой пояс: UTC + 3



Вы не можете начинать темы
Вы не можете отвечать на сообщения
Вы не можете редактировать свои сообщения
Вы не можете удалять свои сообщения
Вы не можете голосовать в опросах
Вы не можете прикреплять файлы к сообщениям
Вы не можете скачивать файлы