Импровизация [5 сезон: 1-19 выпуски] (2018) WEBRip 720р от Files-x

Ответить на тему
 
Автор Сообщение

bond74 ®

Пол: Мужской

Стаж: 4 месяца 10 дней

Сообщений: 271

Создавать темы 27-Ноя-2018 00:14

[Цитировать]

Импровизация Год выпуска: 2018
Жанр: ТВ-шоу
Выпущено: Россия, ТНТ, Comedy Club Production
Ведущий: Павел Воля
В ролях: Арсений Попов, Дмитрий Позов, Сергей Матвиенко, Антон Шастун
О фильме: «Импровизация» — это новое непредсказуемое комедийное шоу от Comedy Club Production. В нём нет сценария и всё, происходящее на сцене, придумывается участниками на ходу. Под управлением ведущего Павла Воли четыре комика и один звездный гость оказываются в самых странных ситуациях — и выбираются из них с юмором. Прежде, чем попасть на экран, четыре участника «Импровизации» (Арсений Попов, Дима Позов, Сергей Матвиенко и Антон Шастун) несколько лет совершенствовали этот формат на клубных вечеринках. Каждый выпуск шоу разбит на части, в которых действуют свои правила: например, в одной комики должны разговаривать только вопросами, в другой — ходят с завязанными глазами по комнате с мышеловками, в третьей — шутят с электрошокерами на руках, которые бьют их током. В каждом шоу к комикам присоединяется приглашенная звезда. Только в «Импровизации» можно заставить певицу Сати Казанову выслушивать, как комики дают интервью от её лица, Ольгу Бузову — подавать реплики, как суфлер, а Мигеля угадывать, кем он был в прошлой жизни. «Импровизация» — шоу для тех, кому надоел предсказуемый юмор и кто хочет посмотреть, каково комикам на сцене без сценария и заготовленных шуток. «Комедия импровизации — весьма распространенный формат в Европе, в Америке. В каждом вузе, в каждой школе есть импровизационная команда. При этом это традиционный жанр, он уходит корнями в итальянский театр масок», — говорит креативный продюсер шоу Стас Шеминов. Импровизация — вершина комедийного спорта, уважаемый жанр, которым мечтаю заниматься многие комики, но который требует постоянной практики. Участники «Импровизации» посвятили этому жанру несколько лет — и стали настоящими мастерами.
Качество: WEBRip 720p
Видео: MPEG-4 AVC, ~ 3520 Кбит/с, 1280x720, 25 кадр/с
Аудио: AC3, 2 ch, 192 Кбит/с
Продолжительность: 19 х ~ 00:48:00
Перевод: Не требуется
Субтитры: нет

Скриншоты

MediaInfo

General
Unique ID : 224330131173142262240303777029723867168 (0xA8C46965878CDD839926F942F71D4820)
Complete name : H:\шоу\Импровизация (Season 5) 720p. Files-x\10. Импровизация. Сезон 5..WEB-DL 720p. Files-x.mkv
Format : Matroska
File size : 1.28 GiB
Duration : 48mn 21s
Overall bit rate : 3 787 Kbps
Encoded date : UTC 2018-10-31 05:48:53
Writing application : mkvmerge v7.8.0 ('River Man') 32bit built on Apr 3 2015 12:11:22
Writing library : libebml v1.3.1 + libmatroska v1.4.2
Video
ID : 1
Format : AVC
Format/Info : Advanced Video Codec
Format profile : High@L3.1
Format settings, CABAC : Yes
Format settings, ReFrames : 1 frame
Codec ID : V_MPEG4/ISO/AVC
Duration : 48mn 21s
Bit rate : 3 520 Kbps
Width : 1 280 pixels
Height : 720 pixels
Display aspect ratio : 16:9
Frame rate : 25.000 fps
Standard : Component
Color space : YUV
Chroma subsampling : 4:2:0
Bit depth : 8 bits
Scan type : Progressive
Bits/(Pixel*Frame) : 0.153
Stream size : 1.19 GiB (93%)
Audio
ID : 2
Format : AC-3
Format/Info : Audio Coding 3
Mode extension : CM (complete main)
Codec ID : A_AC3
Duration : 48mn 21s
Bit rate mode : Constant
Bit rate : 192 Kbps
Channel(s) : 2 channels
Channel positions : Front: L R
Sampling rate : 44.1 KHz
Bit depth : 16 bits
Compression mode : Lossy
Delay relative to video : 9ms
Stream size : 66.4 MiB (5%)
Релиз от:

Релиз подготовлен R.G.Files-x

[Профиль] [ЛС]
Показать сообщения:    
Ответить на тему

Текущее время: 25-Мар 13:51

Часовой пояс: UTC + 3



Вы не можете начинать темы
Вы не можете отвечать на сообщения
Вы не можете редактировать свои сообщения
Вы не можете удалять свои сообщения
Вы не можете голосовать в опросах
Вы не можете прикреплять файлы к сообщениям
Вы не можете скачивать файлы