Открытый микрофон [3 сезон: 1-19 выпуски из 19] (2018) WEBRip от Files-x

Ответить на тему
 
Автор Сообщение

bond74 ®

Пол: Мужской

Стаж: 4 месяца 10 дней

Сообщений: 271

Создавать темы 27-Ноя-2018 00:33

[Цитировать]

Открытый микрофон Год выпуска: 2018
Жанр: ТВ-шоу
Выпущено: Россия, ТНТ, Comedy Club Production
О фильме: 27 января на ТНТ начнется новое оригинальное юмористическое шоу талантов – «Открытый микрофон». Участниками проекта станут молодые (и не очень), никому неизвестные стендап-комики, которые будут бороться за возможность попасть в основной состав одного из самых популярных комедийных шоу в России – Stand Up на ТНТ. Несмотря на то, что многие участники «Открытого микрофона» не так давно занимаются стендапом, их выступления окажутся неожиданно смешными, свежими и непохожими на монологи комиков шоу Stand Up. Уже после отборочного тура станет ясно, что новички легко могут составить конкуренцию мэтрам в жанре стендап и даже перетянуть одеяло популярности на себя. Насколько реальна эта угроза - судить зрителям «Открытого микрофона».
Качество: WEBRip
Видео: XviD, ~ 1800 Кбит/с, 720x400, 25 кадр/с
Аудио: AC3, 2 ch, 192 Кбит/с
Продолжительность: 19 х ~ 00:46:37
Перевод: Не требуется
Субтитры: нет

Скриншоты

MediaInfo

General
Complete name : H:\шоу\Открытый микрофон (Season 03)\Открытый микрофон 3 сезон 4 выпуск. .WEB-DLRip. Files-x.avi
Format : AVI
Format/Info : Audio Video Interleave
File size : 680 MiB
Duration : 47mn 30s
Overall bit rate : 2 001 Kbps
Writing application : VirtualDubMod 1.5.10.3 | www.virtualdub-fr.org || (build 2550/release)
Writing library : VirtualDubMod build 2550/release
Video
ID : 0
Format : MPEG-4 Visual
Format profile : Advanced Simple@L5
Format settings, BVOP : 1
Format settings, QPel : Yes
Format settings, GMC : No warppoints
Format settings, Matrix : Default (MPEG)
Codec ID : XVID
Codec ID/Hint : XviD
Duration : 47mn 30s
Bit rate : 1 800 Kbps
Width : 720 pixels
Height : 400 pixels
Display aspect ratio : 16:9
Frame rate : 25.000 fps
Color space : YUV
Chroma subsampling : 4:2:0
Bit depth : 8 bits
Scan type : Progressive
Compression mode : Lossy
Bits/(Pixel*Frame) : 0.250
Stream size : 611 MiB (90%)
Writing library : XviD 73
Audio
ID : 1
Format : AC-3
Format/Info : Audio Coding 3
Mode extension : CM (complete main)
Codec ID : 2000
Duration : 47mn 30s
Bit rate mode : Constant
Bit rate : 192 Kbps
Channel(s) : 2 channels
Channel positions : Front: L R
Sampling rate : 48.0 KHz
Bit depth : 16 bits
Compression mode : Lossy
Stream size : 65.2 MiB (10%)
Alignment : Split accross interleaves
Interleave, duration : 40 ms (1.00 video frame)
Interleave, preload duration : 500 ms
Релиз от:

Релиз подготовлен R.G.Files-x

[Профиль] [ЛС]
Показать сообщения:    
Ответить на тему

Текущее время: 25-Мар 13:49

Часовой пояс: UTC + 3



Вы не можете начинать темы
Вы не можете отвечать на сообщения
Вы не можете редактировать свои сообщения
Вы не можете удалять свои сообщения
Вы не можете голосовать в опросах
Вы не можете прикреплять файлы к сообщениям
Вы не можете скачивать файлы