Монстры на каникулах: Трилогия / Hotel Transylvania: Trilogy (2012-2018) BDRip-AVC DUB [Лицензия] от Generalfilm

Reply to topic
 
Author Message

White Smoke ®

Gender: Male

Longevity: 6 months 10 days

Posts: 63

Post 27-Nov-2018 02:40

[Quote]

Монстры на каникулах: Трилогия / Hotel Transylvania: Trilogy

Монстры на каникулах / Hotel Transylvania 2012

Монстры на каникулах / Hotel Transylvania Год выпуска: 2012
Жанр: мультфильм, фэнтези, комедия, семейный
Выпущено: США
Режиссер: Генндий Тартаковский
В ролях: Адам Сэндлер (Dracula, озвучка), Энди Сэмберг (Jonathan, озвучка), Селена Гомес (Mavis, озвучка), Кевин Джеймс (Frankenstein, озвучка), Стив Бушеми (Wayne, озвучка), Дэвид Спейд (Griffin, озвучка), Кигэн-Майкл Ки (Murray, озвучка), Эшер Блинкофф (Dennis, озвучка), Фрэн Дрешер (Eunice, озвучка), Молли Шеннон (Wanda, озвучка), Меган Маллалли (Grandma Linda, озвучка), Ник Офферман (Grandpa Mike, озвучка)
О фильме: Граф Дракула для себя и своей любимой дочки построил хорошо укрытый от посторонних глаз отель, куда монстры со всего света приезжают отдохнуть от семейных забот, повседневной суеты и, конечно... людей. Но вездесущие американские туристы проникают и сюда.
Качество: BDRip-AVC
Видео: AVC, 1024x554 (1.85:1), 2100 kbps, 23,976 fps, 0,154 bpp
Аудио: AC3 / 5.1 / 48 kHz / 448 kbps
Продолжительность: 01:31:31
Перевод: Дублированный [Лицензия]
Cубтитры: русские

Скриншоты





MediaInfo

General
Unique ID : 207899701868382265211051173224399059972 (0x9C6806B02D584639B391AB454F5D3C04)
Complete name : E:\Запись с тв\Hotel Transylvania Trilogy 2012-2018 BDRip-AVC R.G.Generalfilm\Monstry.na.kanikulah.2012.BDRip-AVC.Rip.by.White Smoke.R.G.Generalfilm.mkv
Format : Matroska
Format version : Version 4 / Version 2
File size : 1.63 GiB
Duration : 1 h 31 min
Overall bit rate : 2 550 kb/s
Movie name : Monstry.na.kanikulah.2012.BDRip-AVC.Rip.by.White Smoke.R.G.Generalfilm.mkv
Encoded date : UTC 2018-09-30 15:17:39
Writing application : mkvmerge v6.8.0 ('Theme for Great Cities') 64bit built on Mar 2 2014 21:34:26
Writing library : libebml v1.3.0 + libmatroska v1.4.1
Cover : Yes
Attachments : cover.jpg
Video
ID : 1
Format : AVC
Format/Info : Advanced Video Codec
Format profile : High@L4.1
Format settings, CABAC : Yes
Format settings, ReFrames : 10 frames
Codec ID : V_MPEG4/ISO/AVC
Duration : 1 h 31 min
Bit rate : 2 100 kb/s
Width : 1 024 pixels
Height : 554 pixels
Display aspect ratio : 1.85:1
Frame rate mode : Constant
Frame rate : 23.976 (24000/1001) FPS
Color space : YUV
Chroma subsampling : 4:2:0
Bit depth : 8 bits
Scan type : Progressive
Bits/(Pixel*Frame) : 0.154
Stream size : 1.31 GiB (80%)
Writing library : x264 core 148 r2638 7599210
Encoding settings : cabac=1 / ref=10 / deblock=1:-2:-1 / analyse=0x3:0x113 / me=umh / subme=11 / psy=1 / psy_rd=0.00:0.15 / mixed_ref=1 / me_range=32 / chroma_me=1 / trellis=2 / 8x8dct=1 / cqm=0 / deadzone=21,11 / fast_pskip=0 / chroma_qp_offset=-3 / threads=6 / lookahead_threads=1 / sliced_threads=0 / nr=0 / decimate=0 / interlaced=0 / bluray_compat=0 / constrained_intra=0 / bframes=10 / b_pyramid=2 / b_adapt=2 / b_bias=0 / direct=1 / weightb=1 / open_gop=0 / weightp=2 / keyint=240 / keyint_min=23 / scenecut=40 / intra_refresh=0 / rc_lookahead=40 / rc=2pass / mbtree=1 / bitrate=2100 / ratetol=1.0 / qcomp=0.65 / qpmin=0 / qpmax=69 / qpstep=4 / cplxblur=20.0 / qblur=0.5 / vbv_maxrate=50000 / vbv_bufsize=65500 / nal_hrd=none / filler=0 / ip_ratio=1.40 / aq=1:1.00
Language : English
Default : Yes
Forced : No
Audio
ID : 2
Format : AC-3
Format/Info : Audio Coding 3
Mode extension : CM (complete main)
Format settings, Endianness : Big
Codec ID : A_AC3
Duration : 1 h 31 min
Bit rate mode : Constant
Bit rate : 448 kb/s
Channel(s) : 6 channels
Channel positions : Front: L C R, Side: L R, LFE
Sampling rate : 48.0 kHz
Frame rate : 31.250 FPS (1536 spf)
Compression mode : Lossy
Stream size : 293 MiB (18%)
Default : Yes
Forced : No
Text
ID : 3
Format : UTF-8
Codec ID : S_TEXT/UTF8
Codec ID/Info : UTF-8 Plain Text
Language : Russian
Default : No
Forced : No
Menu
00:00:00.000 : en:
00:04:49.371 : en:
00:10:23.789 : en:
00:14:19.275 : en:
00:19:25.497 : en:
00:25:11.217 : en:
00:29:49.411 : en:
00:35:50.815 : en:
00:41:11.635 : en:
00:46:29.536 : en:
00:53:50.226 : en:
00:57:44.794 : en:
01:04:15.268 : en:
01:08:48.499 : en:
01:15:20.599 : en:
01:18:50.642 : en:

Монстры на каникулах 2 / Hotel Transylvania 2 2015

Монстры на каникулах 2 / Hotel Transylvania 2 Год выпуска: 2015
Жанр: мультфильм, фэнтези, комедия, семейный
Выпущено: США
Режиссер: Генндий Тартаковский
В ролях: Адам Сэндлер (Dracula, озвучка), Энди Сэмберг (Jonathan, озвучка), Селена Гомес (Mavis, озвучка), Кевин Джеймс (Frankenstein, озвучка), Стив Бушеми (Wayne, озвучка), Дэвид Спейд (Griffin, озвучка), Кигэн-Майкл Ки (Murray, озвучка), Эшер Блинкофф (Dennis, озвучка), Фрэн Дрешер (Eunice, озвучка), Молли Шеннон (Wanda, озвучка), Меган Маллалли (Grandma Linda, озвучка), Ник Офферман (Grandpa Mike, озвучка)
О фильме: Граф Дракула выдает свою очаровательную дочь замуж за парня из мира людей, и у молодой «смешанной» пары рождается сын. Станет ли этот ребенок человеком или вампиром?
Качество: BDRip-AVC
Видео: AVC, 1024x554 (1.85:1), 1696 kbps, 23,976 fps, 0,125 bpp
Аудио: AC3 / 5.1 / 48 kHz / 448 kbps
Продолжительность: 01:29:18
Перевод: Дублированный [Лицензия]
Cубтитры: русские

Скриншоты





MediaInfo

General
Unique ID : 191899244778121798496142164230449614317 (0x905E733F267E2FC7A04C763AB9374DED)
Complete name : E:\Запись с тв\Hotel Transylvania Trilogy 2012-2018 BDRip-AVC R.G.Generalfilm\Monstry.na.kanikulah 2.2015.BDRip-AVC.Rip.by.White Smoke.R.G.Generalfilm.mkv
Format : Matroska
Format version : Version 4 / Version 2
File size : 1.34 GiB
Duration : 1 h 29 min
Overall bit rate : 2 146 kb/s
Movie name : Monstry.na.kanikulah 2.2015.BDRip-AVC.Rip.by.White Smoke.R.G.Generalfilm.mkv
Encoded date : UTC 2018-10-01 08:12:24
Writing application : mkvmerge v6.8.0 ('Theme for Great Cities') 64bit built on Mar 2 2014 21:34:26
Writing library : libebml v1.3.0 + libmatroska v1.4.1
Cover : Yes
Attachments : cover.jpg
Video
ID : 1
Format : AVC
Format/Info : Advanced Video Codec
Format profile : High@L4.1
Format settings, CABAC : Yes
Format settings, ReFrames : 10 frames
Codec ID : V_MPEG4/ISO/AVC
Duration : 1 h 29 min
Bit rate : 1 696 kb/s
Width : 1 024 pixels
Height : 554 pixels
Display aspect ratio : 1.85:1
Frame rate mode : Constant
Frame rate : 23.976 (24000/1001) FPS
Color space : YUV
Chroma subsampling : 4:2:0
Bit depth : 8 bits
Scan type : Progressive
Bits/(Pixel*Frame) : 0.125
Stream size : 1.03 GiB (77%)
Writing library : x264 core 148 r2638 7599210
Encoding settings : cabac=1 / ref=10 / deblock=1:-2:-1 / analyse=0x3:0x113 / me=umh / subme=11 / psy=1 / psy_rd=0.00:0.15 / mixed_ref=1 / me_range=32 / chroma_me=1 / trellis=2 / 8x8dct=1 / cqm=0 / deadzone=21,11 / fast_pskip=0 / chroma_qp_offset=-3 / threads=6 / lookahead_threads=1 / sliced_threads=0 / nr=0 / decimate=0 / interlaced=0 / bluray_compat=0 / constrained_intra=0 / bframes=10 / b_pyramid=2 / b_adapt=2 / b_bias=0 / direct=1 / weightb=1 / open_gop=0 / weightp=2 / keyint=240 / keyint_min=23 / scenecut=40 / intra_refresh=0 / rc_lookahead=40 / rc=2pass / mbtree=1 / bitrate=1696 / ratetol=1.0 / qcomp=0.65 / qpmin=0 / qpmax=69 / qpstep=4 / cplxblur=20.0 / qblur=0.5 / vbv_maxrate=50000 / vbv_bufsize=65500 / nal_hrd=none / filler=0 / ip_ratio=1.40 / aq=1:1.00
Language : English
Default : Yes
Forced : No
Audio
ID : 2
Format : AC-3
Format/Info : Audio Coding 3
Mode extension : CM (complete main)
Format settings, Endianness : Big
Codec ID : A_AC3
Duration : 1 h 29 min
Bit rate mode : Constant
Bit rate : 448 kb/s
Channel(s) : 6 channels
Channel positions : Front: L C R, Side: L R, LFE
Sampling rate : 48.0 kHz
Frame rate : 31.250 FPS (1536 spf)
Compression mode : Lossy
Stream size : 286 MiB (21%)
Default : Yes
Forced : No
Text #1
ID : 3
Format : UTF-8
Codec ID : S_TEXT/UTF8
Codec ID/Info : UTF-8 Plain Text
Language : Russian
Default : Yes
Forced : No
Text #2
ID : 4
Format : UTF-8
Codec ID : S_TEXT/UTF8
Codec ID/Info : UTF-8 Plain Text
Language : Russian
Default : No
Forced : No
Menu
00:00:00.000 : en:00:00:00.000
00:05:46.471 : en:00:05:46.471
00:09:17.640 : en:00:09:17.640
00:13:09.706 : en:00:13:09.706
00:19:29.126 : en:00:19:29.126
00:22:42.570 : en:00:22:42.570
00:30:05.303 : en:00:30:05.303
00:36:12.712 : en:00:36:12.712
00:40:00.982 : en:00:40:00.982
00:45:54.377 : en:00:45:54.377
00:51:22.454 : en:00:51:22.454
00:56:54.911 : en:00:56:54.911
01:04:01.921 : en:01:04:01.921
01:08:32.817 : en:01:08:32.817
01:13:29.405 : en:01:13:29.405
01:18:35.878 : en:01:18:35.878

Монстры на каникулах 3: Море зовёт / Hotel Transylvania 3: Summer Vacation 2018

Монстры на каникулах 3: Море зовёт / Hotel Transylvania 3: Summer Vacation Год выпуска: 2018
Жанр: мультфильм, фэнтези, комедия, приключения, семейный
Выпущено: США
Режиссер: Генндий Тартаковский
В ролях: Адам Сэндлер (Dracula, озвучка), Энди Сэмберг (Johnny, озвучка), Селена Гомес (Mavis, озвучка), Кевин Джеймс (Frankenstein, озвучка), Фрэн Дрешер (Eunice, озвучка), Стив Бушеми (Wayne, озвучка), Молли Шеннон (Wanda, озвучка), Дэвид Спейд (Griffin, озвучка), Кигэн-Майкл Ки (Murray, озвучка), Джим Гэффиган (Van Helsing, озвучка), Кэтрин Хан (Ericka, озвучка), Эшер Блинкофф (Dennis, озвучка)
О фильме: На этот раз Дракула вместе со своими друзьями отправляется в круиз на шикарном лайнере. Развлечения там на любой вкус: от монстробаскетбола и экзотических экскурсий, до лунных ванн. Неожиданно Дракула влюбляется в капитана корабля - загадочную и прекрасную Эрику, и его дочка Мэвис понимает, что поездка может превратиться в кошмар: ведь Эрика хранит ужасный секрет, который ставит под угрозу существование всех монстров!
Качество: BDRip-AVC
Видео: AVC, 1024x554 (1.85:1), 1701 kbps, 23,976 fps, 0,125 bpp
Аудио: AC3 / 5.1 / 48 kHz / 448 kbps
Продолжительность: 01:37:23
Перевод: Профессиональный (дублированный)
Cубтитры: русские (Forced) (Full)

Скриншоты





MediaInfo

General
Unique ID : 176317157727602984383757869643678931807 (0x84A5730A6A776F068B74D892C924DB5F)
Complete name : E:\Запись с тв\Hotel Transylvania Trilogy 2012-2018 BDRip-AVC R.G.Generalfilm\Hotel.Transylvania.3.Summer.Vacation.2018.BDRip-AVC.Rip.by.White Smoke.R.G.Generalfilm .mkv
Format : Matroska
Format version : Version 4 / Version 2
File size : 1.46 GiB
Duration : 1 h 37 min
Overall bit rate : 2 151 kb/s
Movie name : Hotel.Transylvania.3.Summer.Vacation.2018.BDRip-AVC.Rip.by.White Smoke.R.G.Generalfilm .mkv
Encoded date : UTC 2018-11-19 19:35:48
Writing application : mkvmerge v6.8.0 ('Theme for Great Cities') 64bit built on Mar 2 2014 21:34:26
Writing library : libebml v1.3.0 + libmatroska v1.4.1
Cover : Yes
Attachments : cover.png
Video
ID : 1
Format : AVC
Format/Info : Advanced Video Codec
Format profile : High@L4.1
Format settings, CABAC : Yes
Format settings, ReFrames : 10 frames
Codec ID : V_MPEG4/ISO/AVC
Duration : 1 h 37 min
Bit rate : 1 701 kb/s
Width : 1 024 pixels
Height : 554 pixels
Display aspect ratio : 1.85:1
Frame rate mode : Constant
Frame rate : 23.976 (24000/1001) FPS
Color space : YUV
Chroma subsampling : 4:2:0
Bit depth : 8 bits
Scan type : Progressive
Bits/(Pixel*Frame) : 0.125
Stream size : 1.13 GiB (77%)
Writing library : x264 core 148 r2638 7599210
Encoding settings : cabac=1 / ref=10 / deblock=1:-2:-1 / analyse=0x3:0x113 / me=umh / subme=11 / psy=1 / psy_rd=0.00:0.15 / mixed_ref=1 / me_range=32 / chroma_me=1 / trellis=2 / 8x8dct=1 / cqm=0 / deadzone=21,11 / fast_pskip=0 / chroma_qp_offset=-3 / threads=6 / lookahead_threads=1 / sliced_threads=0 / nr=0 / decimate=0 / interlaced=0 / bluray_compat=0 / constrained_intra=0 / bframes=10 / b_pyramid=2 / b_adapt=2 / b_bias=0 / direct=1 / weightb=1 / open_gop=0 / weightp=2 / keyint=240 / keyint_min=23 / scenecut=40 / intra_refresh=0 / rc_lookahead=40 / rc=2pass / mbtree=1 / bitrate=1701 / ratetol=1.0 / qcomp=0.65 / qpmin=0 / qpmax=69 / qpstep=4 / cplxblur=20.0 / qblur=0.5 / vbv_maxrate=50000 / vbv_bufsize=65500 / nal_hrd=none / filler=0 / ip_ratio=1.40 / aq=1:1.00
Language : English
Default : Yes
Forced : No
Audio
ID : 2
Format : AC-3
Format/Info : Audio Coding 3
Mode extension : CM (complete main)
Format settings, Endianness : Big
Codec ID : A_AC3
Duration : 1 h 37 min
Bit rate mode : Constant
Bit rate : 448 kb/s
Channel(s) : 6 channels
Channel positions : Front: L C R, Side: L R, LFE
Sampling rate : 48.0 kHz
Frame rate : 31.250 FPS (1536 spf)
Compression mode : Lossy
Stream size : 312 MiB (21%)
Default : Yes
Forced : No
Text #1
ID : 3
Format : UTF-8
Codec ID : S_TEXT/UTF8
Codec ID/Info : UTF-8 Plain Text
Title : Forced
Language : Russian
Default : Yes
Forced : Yes
Text #2
ID : 4
Format : UTF-8
Codec ID : S_TEXT/UTF8
Codec ID/Info : UTF-8 Plain Text
Title : Full
Language : Russian
Default : No
Forced : No
Menu
00:00:00.000 : en:00:00:00.000
00:04:28.935 : en:00:04:28.935
00:09:34.824 : en:00:09:34.824
00:16:02.044 : en:00:16:02.044
00:20:03.077 : en:00:20:03.077
00:24:34.932 : en:00:24:34.932
00:31:12.537 : en:00:31:12.537
00:36:49.207 : en:00:36:49.207
00:44:04.725 : en:00:44:04.725
00:49:57.703 : en:00:49:57.703
00:54:49.745 : en:00:54:49.745
01:00:34.881 : en:01:00:34.881
01:06:12.010 : en:01:06:12.010
01:10:32.270 : en:01:10:32.270
01:13:46.380 : en:01:13:46.380
01:24:56.550 : en:01:24:56.550
[Profile] [PM]
Display posts:    
Reply to topic

Current time is: 23-May 21:00

All times are UTC + 3



You cannot post new topics in this forum
You cannot reply to topics in this forum
You cannot edit your posts in this forum
You cannot delete your posts in this forum
You cannot vote in polls in this forum
You cannot attach files in this forum
You cannot download files in this forum