Опер по вызову [3 сезон: 1-24 серии из 24] (2018) WEB-DLRip от Files-x

Reply to topic
 
Author Message

Nicodem ®

Gender: Male

Longevity: 9 months 3 days

Posts: 202

Post 18-Nov-2018 00:38

[Quote]

Опер по вызову
Год выпуска: 2018
Жанр: Детектив, криминал
Выпущено: Украина, "RunGo Studio"
Режиссер: Тарас Ткаченко, Олександр Пархоменко
В ролях: Павел Вишняков, Слава Красовская, Артём Мартынишин, Александр Пожарский, Александр Игнатуша, Валентина Ищенко, Василий Черношкур, Иван Залуский, Дмитрий Гаврилов (II), Ася Белая, Богдан Олейник, Сергей Гаврилюк (II), Владислав Тененбаум, Юлия Чепурко, Вадим Залесский, Виталий Копилец, Юлия Гапчук, Руслан Никоненко, Александр Спирин, Владимир Гладкий, Михаил Федорченко, Александр Мельник (II), Владимир Кокотунов, Александр Дулин, Елена Вознесенская (II), Юрий Кулинич, Григорий Сирота, Юрий Потапенко, Татьяна Лаврушко, Павел Авилов, Евгений Поляков (II), Вячеслав Бабенков (II), Нина Набока, Валерий Гнеушев, Михаил Мерзликин (II)
О фильме: Капитан Артем Трофимов в исполнении харизматичного Павла Вишнякова продолжит распутывать самые сложные криминальные головоломки, прибегая к манипуляциям, шпионажа и мастерства перевоплощений. В новых эпизодах Павел Вишняков появится на экранах в совершенно новых ролях – детский психолог, бомж, киллер-наемник, скинхед, массажиста, узника, адепта секты, агента безопасности. Кстати, один из эпизодов сериала снимали в настоящей тюрьме: "Одна из сцен напоминает фильм "Зеленая миля". Прошлый сезон поразил эффектными кадрами взрывов и пожаров. А вот в продолжении, зрителей ждут зрелищные драки и перестрелки.

Качество: WEB-DLRip
Видео: XviD, ~ 1550 Кбит/с, 720x400, 25 Кадр/с
Аудио: AC3, 2 ch, 192 Кбит/с
Продолжительность: 24 х ~ 00:48:00
Перевод: Не требуется
Cубтитры: нет

Скриншоты



MediaInfo

Общее
Полное имя : C:\Users\DOM\Downloads\Опер по вызову.s03.2018.WEB-DLRip.by.Nicodem.Files-x\29.Опер по вызову.s03.E01.2018.WEB-DLRip.by.Nicodem.Files-x.avi
Формат : AVI
Формат/Информация : Audio Video Interleave
Размер файла : 601 Мбайт
Продолжительность : 48 м.
Общий поток : 1716 Кбит/сек
Программа кодирования : VirtualDubMod 1.5.10.3 | www.virtualdub-fr.org || (build 2550/release)
Библиотека кодирования : VirtualDubMod build 2550/release
Видео
Идентификатор : 0
Формат : MPEG-4 Visual
Профиль формата : Advanced Simple@L5
Параметр BVOP формата : 1
Параметр QPel формата : Да
Параметр GMC формата : Без точки перехода
Параметр матрицы формата : Выборочная
Идентификатор кодека : XVID
Идентификатор кодека/Подсказка : XviD
Продолжительность : 48 м.
Битрейт : 1550 Кбит/сек
Ширина : 720 пикс.
Высота : 400 пикс.
Соотношение сторон : 16:9
Частота кадров : 25,000 кадр/сек
Цветовое пространство : YUV
Подвыборка цветности : 4:2:0
Битовая глубина : 8 бит
Тип развёртки : Прогрессивная
Метод сжатия : С потерями
Бит/(Пиксели*Кадры) : 0.210
Размер потока : 530 Мбайт (88%)
Библиотека кодирования : XviD 73
Аудио
Идентификатор : 1
Формат : AC-3
Формат/Информация : Audio Coding 3
Расширение режима : CM (complete main)
Идентификатор кодека : 2000
Продолжительность : 48 м.
Вид битрейта : Постоянный
Битрейт : 192 Кбит/сек
Каналы : 2 канала
Расположение каналов : Front: L R
Частота : 48,0 КГц
Битовая глубина : 16 бит
Метод сжатия : С потерями
Размер потока : 67,2 Мбайт (11%)
Выравнивание : Разделение по промежуткам
Продолжительность промежутка : 40 мс. (1,00 видеокадр)
Время предзагрузки промежутка : 500 ms

Содержание

3 СЕЗОН
29 (1) серия "Свята София"
30 (2) серия "Мертвый груз"
31 (3) серия "Два крота"
32 (4) серия "Амнезия"
33 (5) серия "Трафик"
34 (6) серия "Меч Немезиды"
35 (7) серия "Отель мертвых душ"
36 (8) серия "Охотники за головами"
37 (9) серия "Убийца по назначению"
38 (10) серия "Карта"
39 (11) серия "Колизей"
40 (12) серия "Химера"
41 (13) серия "Алфавит"
42 (14) серия "Паршивые овцы"
43 (15) серия "Рокировка"
44 (16) серия "Фабрика смерти"
45 (17) серия "Тест-драйв"
46 (18) серия "Олимпия" 1 часть
47 (19) серия "Олимпия" 2 часть
48 (20) серия "Фарфоровая кукла"
49 (21) серия "Первый, второй"
50 (22) серия "Путевка на тот свет"
51 (23) серия "Четыре дня страха"
52 (24) серия "Предел терпения"
Релиз от:
[Profile] [PM]
Display posts:    
Reply to topic

Current time is: 21-Aug 11:48

All times are UTC + 3



You cannot post new topics in this forum
You cannot reply to topics in this forum
You cannot edit your posts in this forum
You cannot delete your posts in this forum
You cannot vote in polls in this forum
You cannot attach files in this forum
You cannot download files in this forum