Скорость убивает / Speed Kills (2018) BDRip

Reply to topic
 
Author Message

Monk ®

Gender: Male

Longevity: 8 months 8 days

Posts: 7519

Location: Казань

Post 27-Nov-2018 09:33

[Quote]

Скорость убивает / Speed Kills Год выпуска: 2018
Жанр: Триллер, драма, криминал
Выпущено: США, Blue Rider Pictures, Hannibal Pictures, JTP Films
Режиссер: Джон Льюсенхоп, Джоди Скурфилд
В ролях: Джон Траволта, Кэтрин Уинник, Дженнифер Эспозито, Майкл Уэстон, Джеймс Римар, Келлан Латс, Мэттью Модайн, Том Сайзмор, Моран Атиас, Чарльз Гиллеспи
О фильме: История жизни Бена Ароноффа, как история скоростной гонки на выживание. Кто выйдет победителем, оказавшись между молотом и наковальней, в схватке между полицией и мафией.

Качество: BDRip
Видео: XviD, 1810 Кбит/с, 720x304
Аудио: Русский (AC3, 2 ch, 192 Кбит/с)
Продолжительность: 01:42:23
Перевод: Профессиональный многоголосый [HDrezka Studio]

Скриншоты

MediaInfo

General
Complete name : D:Скорость убивает.2018.BDRip.Kinozal-Reliz.avi
Format : AVI
Format/Info : Audio Video Interleave
File size : 1.44 GiB
Duration : 1 h 42 min
Overall bit rate : 2 011 kb/s
Writing application : VirtualDubMod 1.5.10.3 | www.virtualdub-fr.org || (build 2550/release)
Writing library : VirtualDubMod build 2550/release
Video
ID : 0
Format : MPEG-4 Visual
Format profile : Advanced Simple@L5
Format settings : BVOP1 / Custom Matrix
Format settings, BVOP : 1
Format settings, QPel : No
Format settings, GMC : No warppoints
Format settings, Matrix : Custom
Codec ID : XVID
Codec ID/Hint : XviD
Duration : 1 h 42 min
Bit rate : 1 810 kb/s
Width : 720 pixels
Height : 304 pixels
Display aspect ratio : 2.35:1
Frame rate : 23.976 (24000/1001) FPS
Color space : YUV
Chroma subsampling : 4:2:0
Bit depth : 8 bits
Scan type : Progressive
Compression mode : Lossy
Bits/(Pixel*Frame) : 0.345
Stream size : 1.29 GiB (90%)
Writing library : XviD 73
Audio
ID : 1
Format : AC-3
Format/Info : Audio Coding 3
Commercial name : Dolby Digital
Codec ID : 2000
Duration : 1 h 42 min
Bit rate mode : Constant
Bit rate : 192 kb/s
Channel(s) : 2 channels
Channel layout : L R
Sampling rate : 48.0 kHz
Frame rate : 31.250 FPS (1536 SPF)
Bit depth : 16 bits
Compression mode : Lossy
Stream size : 141 MiB (10%)
Alignment : Split accross interleaves
Interleave, duration : 42 ms (1.00 video frame)
Interleave, preload duratio : 500 ms
Service kind : Complete Main
[Profile] [PM]
Display posts:    
Reply to topic

Current time is: 22-Jul 18:15

All times are UTC + 3



You cannot post new topics in this forum
You cannot reply to topics in this forum
You cannot edit your posts in this forum
You cannot delete your posts in this forum
You cannot vote in polls in this forum
You cannot attach files in this forum
You cannot download files in this forum