Скорость убивает / Speed Kills (2018) BDRip

Ответить на тему
 
Автор Сообщение

Monk ®

Пол: Мужской

Стаж: 4 месяца 4 дня

Сообщений: 4119

Откуда: Казань

Создавать темы 27-Ноя-2018 09:33

[Цитировать]

Скорость убивает / Speed Kills Год выпуска: 2018
Жанр: Триллер, драма, криминал
Выпущено: США, Blue Rider Pictures, Hannibal Pictures, JTP Films
Режиссер: Джон Льюсенхоп, Джоди Скурфилд
В ролях: Джон Траволта, Кэтрин Уинник, Дженнифер Эспозито, Майкл Уэстон, Джеймс Римар, Келлан Латс, Мэттью Модайн, Том Сайзмор, Моран Атиас, Чарльз Гиллеспи
О фильме: История жизни Бена Ароноффа, как история скоростной гонки на выживание. Кто выйдет победителем, оказавшись между молотом и наковальней, в схватке между полицией и мафией.

Качество: BDRip
Видео: XviD, 1810 Кбит/с, 720x304
Аудио: Русский (AC3, 2 ch, 192 Кбит/с)
Продолжительность: 01:42:23
Перевод: Профессиональный многоголосый [HDrezka Studio]

Скриншоты

MediaInfo

General
Complete name : D:Скорость убивает.2018.BDRip.Kinozal-Reliz.avi
Format : AVI
Format/Info : Audio Video Interleave
File size : 1.44 GiB
Duration : 1 h 42 min
Overall bit rate : 2 011 kb/s
Writing application : VirtualDubMod 1.5.10.3 | www.virtualdub-fr.org || (build 2550/release)
Writing library : VirtualDubMod build 2550/release
Video
ID : 0
Format : MPEG-4 Visual
Format profile : Advanced Simple@L5
Format settings : BVOP1 / Custom Matrix
Format settings, BVOP : 1
Format settings, QPel : No
Format settings, GMC : No warppoints
Format settings, Matrix : Custom
Codec ID : XVID
Codec ID/Hint : XviD
Duration : 1 h 42 min
Bit rate : 1 810 kb/s
Width : 720 pixels
Height : 304 pixels
Display aspect ratio : 2.35:1
Frame rate : 23.976 (24000/1001) FPS
Color space : YUV
Chroma subsampling : 4:2:0
Bit depth : 8 bits
Scan type : Progressive
Compression mode : Lossy
Bits/(Pixel*Frame) : 0.345
Stream size : 1.29 GiB (90%)
Writing library : XviD 73
Audio
ID : 1
Format : AC-3
Format/Info : Audio Coding 3
Commercial name : Dolby Digital
Codec ID : 2000
Duration : 1 h 42 min
Bit rate mode : Constant
Bit rate : 192 kb/s
Channel(s) : 2 channels
Channel layout : L R
Sampling rate : 48.0 kHz
Frame rate : 31.250 FPS (1536 SPF)
Bit depth : 16 bits
Compression mode : Lossy
Stream size : 141 MiB (10%)
Alignment : Split accross interleaves
Interleave, duration : 42 ms (1.00 video frame)
Interleave, preload duratio : 500 ms
Service kind : Complete Main
[Профиль] [ЛС]
Показать сообщения:    
Ответить на тему

Текущее время: 19-Мар 05:34

Часовой пояс: UTC + 3



Вы не можете начинать темы
Вы не можете отвечать на сообщения
Вы не можете редактировать свои сообщения
Вы не можете удалять свои сообщения
Вы не можете голосовать в опросах
Вы не можете прикреплять файлы к сообщениям
Вы не можете скачивать файлы