Дорога грома / Thunder Road (2018) BDRip AVC

Reply to topic
 
Author Message

Monk ®

Gender: Male

Longevity: 10 months 4 days

Posts: 8711

Location: Казань

Post 27-Nov-2018 11:05

[Quote]

Дорога грома / Thunder Road Год выпуска: 2018
Жанр: Драма, комедия
Выпущено: США, The 10 East, Vanishing Angle
Режиссер: Джим Каммингс
В ролях: Джим Каммингс, Кендал Фарр, Никан Робинсон, Жослин ДеБоэр, Челси Эдмундсон, Мэйкон Блэр, Эмми Леонардс, Билл Уайз, Джордан Рэй Фокс, Фрэнк Мосли
О фильме: В жизни нет ничего постоянного. И если сегодня вам светит солнце, то необязательно что точно также будет завтра. Всё течет и меняется, а кто не готов к таким изменениям, тому придётся очень несладко. Ещё одно правило жизни заключается в том, что самое неожиданное происходит тогда, когда человек совершенно к этому не готов. Главный герой этой картины служит полицейским, но вскоре его ожидают по-настоящему тёмные времена. Этот мужчина переживает развод со своей супругой, которую до сих пор сильно любит. Но в это же время умирает его мать, что тоже является ударом для этого человека.

Качество: BDRip AVC
Видео: MPEG-4 AVC, 2117 Кбит/с, 1024x512
Аудио: Русский (AC3, 2 ch, 192 Кбит/с), английский (AC3, 6 ch, 448 Кбит/с)
Продолжительность: 01:30:18
Перевод: Профессиональный многоголосый [HDRezka Studio]

Скриншоты



MediaInfo

Общее
Уникальный идентификатор : 9335625495341977066297541822208283693 (0x705F9DFAA3AA3958386E0060FF4142D)
Полное имя : F:\OlLanDGroup\Thunder.Road.2018.BDRip(AVC).OlLanDGroup.mkv
Формат : Matroska
Версия формата : Version 4 / Version 2
Размер файла : 1,74 Гбайт
Продолжительность : 1 ч. 30 м.
Общий поток : 2759 Кбит/сек
Название фильма : Thunder.Road.2018 #TorpedoUK#
Дата кодирования : UTC 2019-02-08 06:47:21
Программа кодирования : mkvmerge v29.0.0 ('Like It Or Not') 64-bit
Библиотека кодирования : libebml v1.3.6 + libmatroska v1.4.9
Видео
Идентификатор : 1
Формат : AVC
Формат/Информация : Advanced Video Codec
Профиль формата : High@L4.1
Параметр CABAC формата : Да
Параметр ReFrames формата : 10 кадров
Идентификатор кодека : V_MPEG4/ISO/AVC
Продолжительность : 1 ч. 30 м.
Битрейт : 2117 Кбит/сек
Ширина : 1024 пикселя
Высота : 512 пикселей
Соотношение сторон : 2,000
Режим частоты кадров : Постоянный
Частота кадров : 23,976 (24000/1001) кадра/сек
Цветовое пространство : YUV
Субдискретизация насыщенности : 4:2:0
Битовая глубина : 8 бит
Тип развёртки : Прогрессивная
Бит/(Пиксели*Кадры) : 0.168
Размер потока : 1,34 Гбайт (77%)
Библиотека кодирования : x264 core 146 r2538 121396c
Настройки программы : cabac=1 / ref=10 / deblock=1:-3:-3 / analyse=0x3:0x113 / me=umh / subme=11 / psy=1 / psy_rd=0.98:0.04 / mixed_ref=1 / me_range=48 / chroma_me=1 / trellis=2 / 8x8dct=1 / cqm=0 / deadzone=21,11 / fast_pskip=1 / chroma_qp_offset=-3 / threads=6 / lookahead_threads=1 / sliced_threads=0 / nr=0 / decimate=1 / interlaced=0 / bluray_compat=0 / constrained_intra=0 / bframes=11 / b_pyramid=2 / b_adapt=2 / b_bias=0 / direct=3 / weightb=1 / open_gop=0 / weightp=2 / keyint=240 / keyint_min=23 / scenecut=40 / intra_refresh=0 / rc_lookahead=40 / rc=2pass / mbtree=0 / bitrate=2117 / ratetol=1.0 / qcomp=0.60 / qpmin=0 / qpmax=69 / qpstep=4 / cplxblur=20.0 / qblur=0.5 / vbv_maxrate=50000 / vbv_bufsize=62500 / nal_hrd=none / filler=0 / ip_ratio=1.40 / pb_ratio=1.30 / aq=1:1.00
Язык : English
Default : Да
Forced : Нет
Аудио #1
Идентификатор : 2
Формат : AC-3
Формат/Информация : Audio Coding 3
Расширение режима : CM (complete main)
Параметр Endianness формата : Big
Идентификатор кодека : A_AC3
Продолжительность : 1 ч. 30 м.
Вид битрейта : Постоянный
Битрейт : 192 Кбит/сек
Каналы : 2 канала
Расположение каналов : Front: L R
Частота : 48,0 КГц
Частота кадров : 31,250 кадров/сек (1536 spf)
Битовая глубина : 16 бит
Метод сжатия : С потерями
Размер потока : 124 Мбайт (7%)
Заголовок : MVO [HDRezka Studio]
Язык : Russian
Default : Да
Forced : Нет
Аудио #2
Идентификатор : 3
Формат : AC-3
Формат/Информация : Audio Coding 3
Расширение режима : CM (complete main)
Параметр Endianness формата : Big
Идентификатор кодека : A_AC3
Продолжительность : 1 ч. 30 м.
Вид битрейта : Постоянный
Битрейт : 448 Кбит/сек
Каналы : 6 каналов
Расположение каналов : Front: L C R, Side: L R, LFE
Частота : 48,0 КГц
Частота кадров : 31,250 кадров/сек (1536 spf)
Битовая глубина : 16 бит
Метод сжатия : С потерями
Размер потока : 289 Мбайт (16%)
Заголовок : [Original]
Язык : English
Default : Нет
Forced : Нет
Меню
00:00:00.000 : :Глава 01
00:13:09.246 : :Глава 02
00:19:59.573 : :Глава 03
00:32:05.131 : :Глава 04
00:39:26.864 : :Глава 05
00:50:17.848 : :Глава 06
01:01:48.996 : :Глава 07
01:09:06.517 : :Глава 08
01:18:22.447 : :Глава 09
[Profile] [PM]
Display posts:    
Reply to topic

Current time is: 18-Sep 21:48

All times are UTC + 3



You cannot post new topics in this forum
You cannot reply to topics in this forum
You cannot edit your posts in this forum
You cannot delete your posts in this forum
You cannot vote in polls in this forum
You cannot attach files in this forum
You cannot download files in this forum