Discovery. Как устроена Вселенная / How the Universe Works [5 сезон:1-8 серии из 8] (2016-2017) HDTVRip 720p от GeneralFilm

Reply to topic
 
Author Message

Starik60 ®

Gender: Male

Longevity: 9 months 12 days

Posts: 148

Location: Москва, Россия

Post 27-Nov-2018 11:15

[Quote]

Как устроена Вселенная / How the Universe Works
Год выпуска: 2016-2017
Жанр: Документальный, научно-познавательный, астрономия, космос
Выпущено: США, Pioneer Productions, Discovery Channel
Режиссер: Ник Дж. Миллер, Лиза Мерфи Райлли
В ролях: Фил Плейт, Мишель Таллер, Лоуренс Краусс, Джефф Марси, Дэвид Гринспун, Алекс Филиппенко, Карлос Френк
О фильме: Ошеломляющий и уникальный проект, канала "Discovery" — представляет вашему вниманию передачу «Как устроена Вселенная». Она расскажет вам теорию о том как образовалась Вселенная, галактики, солнечные системы, планеты, звезды и т. д. Это величайшая история о том, как из маленькой точки появилась целая Вселенная, а потом начали появляться звезды, планеты и, конечно же, наша Земля. На самом деле, если сравнивать появление нашей планеты с историей вселенной, окажется, что мы лишь мельчайшая частица во всем этом круговороте событий! Ведь мы даже не знаем все процессы нашей галактики, а есть ещё миллиарды других, незнакомых нам галактик. Сейчас мы живем в «золотом веке астрономических открытий». Ведь именно сейчас с развитием технологий, применяемых в телескопах и спутниках, ученые открывают то, что буквально 50 лет назад казалось абсурдным. И не смотря на это остается ещё масса вопросов, на которые пока нет ответа. В действительности тема космоса одна из наиболее интересных тем. В данном сериале вы получите ответы на многие вопросы, известнейшие учены и астрономы поделятся с вами секретами! Вы узнаете о том, как зародилась наша Вселенная, о том, как появились первые планеты, вы познаете тайны нашей Солнечной системы, а также окунётесь в потрясающий мир других планет! Чем дальше продвигаются астрономы в своих знаниях, тем интереснее становится следить за всем тем, что происходит в космосе. Давайте посмотрим этот удивительный проект и окунемся в мир неизвестности и загадочности! Приятного просмотра, уважаемые зрители!

Качество: HDTVRip 720p
Видео: MPEG-4 AVC, ~ 4000 Кбит/с, 1280x720
Аудио: Русский (MP2, 2 ch, 192 Кбит/с)
Продолжительность: 8 x ~ 00:44:00
Перевод: Профессиональный (одноголосый, закадровый)

Скриншоты



MediaInfo

General
Unique ID : 192771815751198632303080416452013302569 (0x910680513183DF9A43E38BCDE0B5A329)
Complete name : H:\Раздачи 3\Как устроена Вселенная s05 720p GeneralFilm\01 Тайна девятой планеты GeneralFilm.mkv
Format : Matroska
Format version : Version 2
File size : 1.28 GiB
Duration : 43 min 43 s
Overall bit rate mode : Constant
Overall bit rate : 4 198 kb/s
Writing application : Lavf54.63.104
Writing library : Lavf54.63.104
Video
ID : 1
Format : AVC
Format/Info : Advanced Video Codec
Format profile : High@L4.1
Format settings : CABAC / 3 Ref Frames
Format settings, CABAC : Yes
Format settings, ReFrames : 3 frames
Codec ID : V_MPEG4/ISO/AVC
Duration : 43 min 43 s
Bit rate mode : Constant
Bit rate : 4 000 kb/s
Width : 1 280 pixels
Height : 720 pixels
Display aspect ratio : 16:9
Frame rate mode : Constant
Frame rate : 50.000 FPS
Standard : PAL
Color space : YUV
Chroma subsampling : 4:2:0
Bit depth : 8 bits
Scan type : Progressive
Bits/(Pixel*Frame) : 0.087
Stream size : 1.20 GiB (93%)
Default : No
Forced : No
Color range : Limited
Color primaries : BT.709
Transfer characteristics : BT.709
Matrix coefficients : BT.709
Audio
ID : 2
Format : MPEG Audio
Format version : Version 1
Format profile : Layer 2
Codec ID : A_MPEG/L2
Codec ID/Hint : MP2
Duration : 43 min 43 s
Bit rate mode : Constant
Bit rate : 192 kb/s
Channel(s) : 2 channels
Sampling rate : 48.0 kHz
Compression mode : Lossy
Delay relative to video : 12 ms
Stream size : 60.0 MiB (5%)
Language : English
Default : Yes
Forced : No

Название серий

01. Тайна девятой планеты / Mystery of Planet 9
02. Тайна происхождения черных дыр / Black Holes: The Secret Origin
03. Тайная история Плутона / Secret History of Pluto
04. Звезды, которые убивают / Stars That Kill
05. Гиблые места во Вселенной / The Universe's Deadliest
06. Жизнь и смерть на Красной планете / Life and Death on the Red Planet
07. Загадка темной материи / The Dark Matter Enigma
08. Самые необычные планеты / Strangest Alien Worlds
Благодарю за отличный постер ValkiriaGF
Релиз от:
[Profile] [PM]
Display posts:    
Reply to topic

Current time is: 24-Aug 15:41

All times are UTC + 3



You cannot post new topics in this forum
You cannot reply to topics in this forum
You cannot edit your posts in this forum
You cannot delete your posts in this forum
You cannot vote in polls in this forum
You cannot attach files in this forum
You cannot download files in this forum