Mamma Mia! 2 / Mamma Mia! Here We Go Again (2018) BDRip 1080p | |Лицензия

Ответить на тему
 
Автор Сообщение

Monk ®

Пол: Мужской

Стаж: 4 месяца 4 дня

Сообщений: 4119

Откуда: Казань

Создавать темы 27-Ноя-2018 11:17

[Цитировать]

Mamma Mia! 2 / Mamma Mia! Here We Go Again Год выпуска: 2018
Жанр: Мюзикл, комедия
Выпущено: Великобритания, США, Legendary Pictures, Universal
Режиссер: Ол Паркер
В ролях: Лили Джеймс, Аманда Сайфред, Мэрил Стрип, Доминик Купер, Шер, Кристин Барански, Пирс Броснан, Колин Фёрт, Энди Гарсиа, Стеллан Скарсгард
О фильме: Сбежать на райский греческий остров, чтобы гулять по улочкам очаровательного города, наслаждаться местной кухней, танцевать до утра, кататься на яхте и влюбиться без памяти - что может быть лучше? Звучит, как идеальный план на лето... да и на всю жизнь тоже.

Качество: BDRip 1080p
Видео: MPEG-4 AVC, 17.1 Mбит/с, 1920x800
Аудио: Русский (AC3, 6 ch, 640 Кбит/с), украинский (AC3, 2 ch, 192 Кбит/c), английский (AC3, 6 ch, 640 Кбит/с)
Продолжительность: 01:53:39
Перевод: Дублированный [Лицензия]
Субтитры: Русские, английские

Скриншоты



MediaInfo

General
Unique ID : 23719841501838549554659053252648689536 (0x11D8467A38AF8A122DEBD2B0FDB8DF80)
Complete name : D:\Video111\Mamma.Mia!.Here.We.Go.Again.2018.1080p.BluRay.Rus.Eng.Ukr.TeamHD-LoRD.mkv
Format : Matroska
Format version : Version 4
File size : 14.8 GiB
Duration : 1 h 53 min
Overall bit rate : 18.6 Mb/s
Movie name : Mamma.Mia!.Here.We.Go.Again.2018 TeamHD-селезень
Encoded date : UTC 2018-10-27 12:42:40
Writing application : mkvmerge v28.0.0 ('Voice In My Head') 64-bit
Writing library : libebml v1.3.6 + libmatroska v1.4.9
Video
ID : 1
Format : AVC
Format/Info : Advanced Video Codec
Format profile : High@L4.1
Format settings : CABAC / 5 Ref Frames
Format settings, CABAC : Yes
Format settings, ReFrames : 5 frames
Codec ID : V_MPEG4/ISO/AVC
Duration : 1 h 53 min
Bit rate : 17.1 Mb/s
Width : 1 920 pixels
Height : 800 pixels
Display aspect ratio : 2.40:1
Frame rate mode : Constant
Frame rate : 23.976 (24000/1001) FPS
Color space : YUV
Chroma subsampling : 4:2:0
Bit depth : 8 bits
Scan type : Progressive
Bits/(Pixel*Frame) : 0.465
Stream size : 13.6 GiB (92%)
Title : LoRD
Writing library : x264 core 157 r2932 303c484
Encoding settings : cabac=1 / ref=5 / deblock=1:-3:-3 / analyse=0x3:0x133 / me=umh / subme=10 / psy=1 / psy_rd=1.00:0.00 / mixed_ref=1 / me_range=32 / chroma_me=1 / trellis=2 / 8x8dct=1 / cqm=0 / deadzone=21,11 / fast_pskip=0 / chroma_qp_offset=-2 / threads=12 / lookahead_threads=2 / sliced_threads=0 / nr=0 / decimate=0 / interlaced=0 / bluray_compat=0 / constrained_intra=0 / bframes=8 / b_pyramid=2 / b_adapt=2 / b_bias=0 / direct=3 / weightb=1 / open_gop=0 / weightp=2 / keyint=250 / keyint_min=23 / scenecut=40 / intra_refresh=0 / rc_lookahead=60 / rc=2pass / mbtree=0 / bitrate=17135 / ratetol=1.0 / qcomp=0.60 / qpmin=0 / qpmax=69 / qpstep=4 / cplxblur=20.0 / qblur=0.5 / vbv_maxrate=50000 / vbv_bufsize=62500 / nal_hrd=none / filler=0 / ip_ratio=1.30 / pb_ratio=1.20 / aq=3:0.80
Language : English
Default : Yes
Forced : No
Audio #1
ID : 2
Format : AC-3
Format/Info : Audio Coding 3
Commercial name : Dolby Digital
Codec ID : A_AC3
Duration : 1 h 53 min
Bit rate mode : Constant
Bit rate : 640 kb/s
Channel(s) : 6 channels
Channel layout : L R C LFE Ls Rs
Sampling rate : 48.0 kHz
Frame rate : 31.250 FPS (1536 SPF)
Bit depth : 16 bits
Compression mode : Lossy
Stream size : 520 MiB (3%)
Title : Dub [License]
Language : Russian
Service kind : Complete Main
Default : Yes
Forced : Yes
Audio #2
ID : 3
Format : AC-3
Format/Info : Audio Coding 3
Commercial name : Dolby Digital
Codec ID : A_AC3
Duration : 1 h 53 min
Bit rate mode : Constant
Bit rate : 192 kb/s
Channel(s) : 2 channels
Channel layout : L R
Sampling rate : 48.0 kHz
Frame rate : 31.250 FPS (1536 SPF)
Bit depth : 16 bits
Compression mode : Lossy
Stream size : 156 MiB (1%)
Title : Dub
Language : Ukrainian
Service kind : Complete Main
Default : No
Forced : No
Audio #3
ID : 4
Format : AC-3
Format/Info : Audio Coding 3
Commercial name : Dolby Digital
Codec ID : A_AC3
Duration : 1 h 53 min
Bit rate mode : Constant
Bit rate : 640 kb/s
Channel(s) : 6 channels
Channel layout : L R C LFE Ls Rs
Sampling rate : 48.0 kHz
Frame rate : 31.250 FPS (1536 SPF)
Bit depth : 16 bits
Compression mode : Lossy
Stream size : 520 MiB (3%)
Title : Original
Language : English
Service kind : Complete Main
Default : No
Forced : No
Text #1
ID : 5
Format : UTF-8
Codec ID : S_TEXT/UTF8
Codec ID/Info : UTF-8 Plain Text
Duration : 1 h 52 min
Bit rate : 33 b/s
Count of elements : 512
Stream size : 27.3 KiB (0%)
Title : Forced
Language : Russian
Default : Yes
Forced : Yes
Text #2
ID : 6
Format : UTF-8
Codec ID : S_TEXT/UTF8
Codec ID/Info : UTF-8 Plain Text
Duration : 1 h 52 min
Bit rate : 88 b/s
Count of elements : 1498
Stream size : 72.6 KiB (0%)
Title : Full
Language : Russian
Default : No
Forced : No
Text #3
ID : 7
Format : UTF-8
Codec ID : S_TEXT/UTF8
Codec ID/Info : UTF-8 Plain Text
Duration : 1 h 51 min
Bit rate : 65 b/s
Count of elements : 1572
Stream size : 53.4 KiB (0%)
Title : Full
Language : English
Default : No
Forced : No
Text #4
ID : 8
Format : UTF-8
Codec ID : S_TEXT/UTF8
Codec ID/Info : UTF-8 Plain Text
Duration : 1 h 52 min
Bit rate : 70 b/s
Count of elements : 1750
Stream size : 57.8 KiB (0%)
Title : SDH
Language : English
Default : No
Forced : No
Text #5
ID : 9
Format : UTF-8
Codec ID : S_TEXT/UTF8
Codec ID/Info : UTF-8 Plain Text
Duration : 1 h 51 min
Bit rate : 153 b/s
Count of elements : 2134
Stream size : 126 KiB (0%)
Title : SDH Colored
Language : English
Default : No
Forced : No
Menu
00:00:00.000 : en:00:00:00.000
00:02:59.805 : en:00:02:59.805
00:09:08.798 : en:00:09:08.798
00:16:41.000 : en:00:16:41.000
00:24:23.712 : en:00:24:23.712
00:26:55.030 : en:00:26:55.030
00:34:58.888 : en:00:34:58.888
00:39:13.476 : en:00:39:13.476
00:43:47.500 : en:00:43:47.500
00:50:27.358 : en:00:50:27.358
00:53:26.870 : en:00:53:26.870
00:58:31.675 : en:00:58:31.675
01:04:52.388 : en:01:04:52.388
01:15:11.507 : en:01:15:11.507
01:24:53.046 : en:01:24:53.046
01:27:04.511 : en:01:27:04.511
01:28:58.917 : en:01:28:58.917
01:33:01.785 : en:01:33:01.785
01:37:19.250 : en:01:37:19.250
01:43:09.517 : en:01:43:09.517
[Профиль] [ЛС]
Показать сообщения:    
Ответить на тему

Текущее время: 19-Мар 05:30

Часовой пояс: UTC + 3



Вы не можете начинать темы
Вы не можете отвечать на сообщения
Вы не можете редактировать свои сообщения
Вы не можете удалять свои сообщения
Вы не можете голосовать в опросах
Вы не можете прикреплять файлы к сообщениям
Вы не можете скачивать файлы