Discovery. Мятежный гараж / Misfit Garage [1-3 сезоны: 1-45 серии из 45] (2014-2018) HDTVRip от GeneralFilm

Reply to topic
 
Author Message

Starik60 ®

Gender: Male

Longevity: 1 year

Posts: 184

Location: Москва, Россия

Post 27-Nov-2018 11:49

[Quote]

Мятежный гараж / Misfit Garage
Год выпуска: 2014-2018
Жанр: Документальный, автомобили
Выпущено: США, Pilgrim Studios
В ролях: Джордан Батлер, Скот МакМиллан, Ричард Роулингс, Том Смит, Томас Викс
О фильме: Ричард Роулингс хорошо известен зрителям Discovery Channel благодаря программе «Быстрые и громкие» - в своей мастерской Gas Monkey вместе с Аароном Кауфманом он возвращает старым автомобилям былую красу, создавая настоящие шедевры. Теперь Ричард представляет новый проект: Аарон по-прежнему остался с ним, но большая часть команды покинула мастерскую. Тома Смита и Джордана Батлера уволил сам Ричард, Скотт Макмилан ушел по собственному желанию. Эта троица объединилась с Томасом Уиксом – теперь у Роулингса появились серьезные конкуренты, которые открыли мастерскую и пытаются отнять часть дохода у Роулингса. Но Ричард с Аароном тоже не лыком шиты, и у них еще есть козыри в рукаве! Они продолжают реставрировать легендарные автомобили с той же виртуозностью, а главное – у их мастерской есть имя, которое известно всему миру.

Качество: HDTVRip
Видео: XviD, ~ 1540 Кбит/с, 720x400
Аудио: АС3, 2 ch, 192 Кбит/с
Продолжительность: 45 x ~ 00:44:00
Перевод: Профессиональный (одноголосый, закадровый)

Скриншоты


MediaInfo

General
Complete name : H:\Раздачи 3\Мятежный гараж GeneralFilm\1 сезон\01 Мятежный гараж.avi
Format : AVI
Format/Info : Audio Video Interleave
File size : 541 MiB
Duration : 43 min 51 s
Overall bit rate : 1 725 kb/s
Writing application : VirtualDubMod 1.5.10.3 | www.virtualdub-fr.org || (build 2550/release)
Writing library : VirtualDubMod build 2550/release
Video
ID : 0
Format : MPEG-4 Visual
Format profile : Advanced Simple@L5
Format settings : BVOP1
Format settings, BVOP : 1
Format settings, QPel : No
Format settings, GMC : No warppoints
Format settings, Matrix : Default (MPEG)
Codec ID : XVID
Codec ID/Hint : XviD
Duration : 43 min 51 s
Bit rate : 1 521 kb/s
Width : 720 pixels
Height : 400 pixels
Display aspect ratio : 16:9
Frame rate : 30.000 FPS
Color space : YUV
Chroma subsampling : 4:2:0
Bit depth : 8 bits
Scan type : Progressive
Compression mode : Lossy
Bits/(Pixel*Frame) : 0.176
Stream size : 477 MiB (88%)
Writing library : XviD 1.2.1 (UTC 2008-12-04)
Audio
ID : 1
Format : AC-3
Format/Info : Audio Coding 3
Commercial name : Dolby Digital
Codec ID : 2000
Duration : 43 min 51 s
Bit rate mode : Constant
Bit rate : 192 kb/s
Channel(s) : 2 channels
Channel layout : L R
Sampling rate : 48.0 kHz
Frame rate : 31.250 FPS (1536 SPF)
Bit depth : 16 bits
Compression mode : Lossy
Stream size : 60.2 MiB (11%)
Alignment : Split accross interleaves
Interleave, duration : 33 ms (1.00 video frame)
Interleave, preload duratio : 500 ms
Service kind : Complete Main
Благодарю за отличный постер ValkiriaGF
Релиз от:
[Profile] [PM]
Display posts:    
Reply to topic

Current time is: 22-Nov 11:52

All times are UTC + 3



You cannot post new topics in this forum
You cannot reply to topics in this forum
You cannot edit your posts in this forum
You cannot delete your posts in this forum
You cannot vote in polls in this forum
You cannot attach files in this forum
You cannot download files in this forum