Петр I: Последний царь и первый император [1-4 серии из 4] (2022) WEBRip-AVC от Files-x

Reply to topic
 
Author Message

Серый1779 ®

Gender: Male

Longevity: 5 years 5 months

Posts: 3514

Location: Украина

Post 19-Dec-2022 14:40

[Quote]

Петр I: Последний царь и первый император Год выпуска: 2022
Жанр: История, биография
Выпущено: Россия, Кинокомпания "1-2-3 Production"
Режиссер: Андрей Кравчук
В ролях: Иван Колесников, Алексей Лукин, Даниил Муравьёв-Изотов, Вольфганг Черни, Максим Иванов, Ксения Утехина, Анастасия Мишина, Юлия Бочарова, Роман Коноплев, Александр Большаков, Василий Мичков, Константин Хабенский, Иван Добронравов, Игорь Гордин, Иван Степанов, Тимо Уиллман, Евгений Денисов, Анна Родоная, Эдвард Опп, Олег Кныш, Александр Высоковский, Валентин Терехов, Александр Малахов, Александр Клюквин, Андрей Бутин, Андрей Лебедев, Валентин Стасюк, Никита Карпинский, Йоэл Лехтонен, Дмитрий Кондратюк, Денис Зыков
О фильме: О последнем царе и первом императоре России Петре I. Эпоха его правления неоднократно описывалась в книгах и учебниках, но никто еще не пытался изучить его личность, понять мотивы, оценить эффективность и сложность решений. Был ли это гениальный визионер, изменивший ход истории, или, напротив, он сам стал результатом наступившего времени неизбежных перемен? Фигура императора Петра Великого, как и эпоха его становления и правления, до сих пор будоражит умы людей во всем мире. Как занять престол, когда ты - четырнадцатый ребенок в семье; как отвоевать выход к морю, когда в стране нет профессиональной армии и флота; как за несколько десятилетий вывести в мировые лидеры страну, с которой раньше никто не считался.
Качество: WEBRip-AVC
Видео: MPEG-4 AVC, ~ 1600 Кбит/с, 1024x432, 25 кадр/с
Аудио: AC3, 2 ch, 192 Кбит/с
Продолжительность: 4 х ~ 00:35:00
Перевод: Не требуется
Cубтитры: Нет

Скриншоты



MediaInfo

General
Unique ID : 245785482738112779052599864467432493302 (0xB8E88FE67291BD03B0A6B9BA3FE150F6)
Complete name : F:\Петр I. Последний царь и первый император.(2022).WEBRip.(AVC).Files-x\01.Петр I. Последний царь и первый император.(2022).WEBRip.(AVC).by.Серый1779.Files-x.mkv
Format : Matroska
Format version : Version 2
File size : 460 MiB
Duration : 35 min 56 s
Overall bit rate : 1 790 kb/s
Encoded date : UTC 2022-12-18 23:24:20
Writing application : mkvmerge v7.8.0 ('River Man') 32bit built on Apr 3 2015 12:11:22
Writing library : libebml v1.3.1 + libmatroska v1.4.2
Video
ID : 1
Format : AVC
Format/Info : Advanced Video Codec
Format profile : High@L4.1
Format settings : CABAC / 9 Ref Frames
Format settings, CABAC : Yes
Format settings, RefFrames : 9 frames
Codec ID : V_MPEG4/ISO/AVC
Duration : 35 min 56 s
Bit rate : 1 600 kb/s
Width : 1 024 pixels
Height : 432 pixels
Display aspect ratio : 2.40:1
Frame rate mode : Constant
Frame rate : 25.000 FPS
Color space : YUV
Chroma subsampling : 4:2:0
Bit depth : 8 bits
Scan type : Progressive
Bits/(Pixel*Frame) : 0.145
Stream size : 402 MiB (87%)
Writing library : x264 core 146 r2538 121396c
Encoding settings : cabac=1 / ref=9 / deblock=1:-2:-1 / analyse=0x3:0x133 / me=umh / subme=9 / psy=1 / psy_rd=1.00:0.15 / mixed_ref=1 / me_range=32 / chroma_me=1 / trellis=2 / 8x8dct=1 / cqm=0 / deadzone=21,11 / fast_pskip=0 / chroma_qp_offset=-3 / threads=18 / lookahead_threads=3 / sliced_threads=0 / nr=0 / decimate=1 / interlaced=0 / bluray_compat=0 / constrained_intra=0 / bframes=9 / b_pyramid=2 / b_adapt=2 / b_bias=0 / direct=1 / weightb=1 / open_gop=0 / weightp=2 / keyint=250 / keyint_min=25 / scenecut=40 / intra_refresh=0 / rc=2pass / mbtree=0 / bitrate=1600 / ratetol=1.0 / qcomp=0.60 / qpmin=0 / qpmax=69 / qpstep=4 / cplxblur=20.0 / qblur=0.5 / ip_ratio=1.40 / pb_ratio=1.30 / aq=2:1.00
Default : Yes
Forced : No
Color range : Limited
Color primaries : BT.709
Transfer characteristics : BT.709
Matrix coefficients : BT.709
Audio
ID : 2
Format : AC-3
Format/Info : Audio Coding 3
Format settings, Endianness : Big
Codec ID : A_AC3
Duration : 35 min 56 s
Bit rate mode : Constant
Bit rate : 192 kb/s
Channel(s) : 2 channels
Channel positions : Front: L R
Sampling rate : 48.0 kHz
Frame rate : 31.250 FPS (1536 SPF)
Bit depth : 16 bits
Compression mode : Lossy
Stream size : 49.4 MiB (11%)
Service kind : Complete Main
Default : Yes
Forced : No

Раздача ведётся путём добавления новых серий

Внимание! Раздача ведётся путём добавления новых серий; при каждом добавлении создаётся новый торрент.
Чтобы начать докачку новой серии, пользователям необходимо сделать следующее:
1. Остановить скачивание;
2. Удалить старый торрент у себя из клиента (старые серии удалять не надо);
3. Скачать новый торрент и запустить его у себя в клиенте вместо старого, при этом указать клиенту путь в старую папку куда и должно происходить скачивание новых серий. Ваш клиент при этом должен произвести хеширование (проверку) старой папки и будет докачивать только те серии, которых у вас ещё нет. Старые серии при этом не удаляются, а продолжают раздаваться! Eсли вы уже удалили старые серии, то предотвратить повторную закачку старых серий можно, отжав галочку в соответствующих местах при запуске нового торрента.
Релиз от:

Release was prepared by RG Files-x

[Profile] [PM]
Display posts:    
Reply to topic

Current time is: 21-Apr 05:14

All times are UTC + 3



You cannot post new topics in this forum
You cannot reply to topics in this forum
You cannot edit your posts in this forum
You cannot delete your posts in this forum
You cannot vote in polls in this forum
You cannot attach files in this forum
You cannot download files in this forum