Шоу Воли [1-44 выпуск] (2023) WEBRip 720p от Files-x

Reply to topic
 
Author Message

bond74 ®

Gender: Male

Longevity: 5 years 3 months

Posts: 2273

Post 17-Apr-2023 14:38

[Quote]

Шоу Воли Год выпуска: 2023
Жанр: ТВ-шоу, развлекательный, юмор, музыка
Выпущено: Россия
Ведущий: Павел Воля
Описание:Каждую неделю Павел вместе с приглашенными гостями – звездами и самыми обычными людьми – подведет итоги уходящей недели и сделает это в своей фирменной юмористической манере в лучших традициях ТНТ. В каждом выпуске зрители узнают о самых интересных событиях, произошедших в мире, а также услышат мнение от звезд и ведущих. «Шоу Воли» обещает удивлять смелыми экспериментами и свежими форматами. Каждое воскресенье зрителей будет ждать настоящий аттракцион дерзкого юмора на злобу дня, интерактив с участием топовых звёзд, абсурдные конкурсы, неожиданные музыкальные опыты и просто куча веселья с Павлом Волей и его гостями.
Качество: WEBRip 720p
Видео: MPEG-4 AVC, ~ 2776 Кбит/с, 1280x720, 25 кадр/с
Аудио: AC3, 2 ch, 192 Кбит/с
Продолжительность: 38 x ~ 01:32:23
Перевод: Не требуется
Субтитры: Нет

Скриншоты



MediaInfo

Общее
Уникальный идентификатор : 193847266128670793907276467694168424963 (0x91D5A01D537BAE50A5739943B9B3C203)
Полное имя : C:\films\Шоу Воли.2023.WEB-DL 720p.Files-x\01. Шоу Воли.2023.WEB-DL 720p.Files-x..mkv
Формат : Matroska
Версия формата : Version 2
Размер файла : 1,27 Гбайт
Продолжительность : 1 ч. 0 м.
Режим общего битрейта : Переменный
Общий поток : 3 028 Кбит/сек
Дата кодирования : UTC 2023-04-16 19:16:10
Программа кодирования : mkvmerge v7.8.0 ('River Man') 32bit built on Apr 3 2015 12:11:22
Библиотека кодирования : libebml v1.3.1 + libmatroska v1.4.2
Видео
Идентификатор : 1
Формат : AVC
Формат/Информация : Advanced Video Codec
Профиль формата : High@L4.1
Настройки формата : CABAC / 3 Ref Frames
Параметр CABAC формата : Да
Параметр RefFrames формата : 3 кадра
Параметр GOP формата : M=1, N=50
Идентификатор кодека : V_MPEG4/ISO/AVC
Продолжительность : 1 ч. 0 м.
Вид битрейта : Переменный
Битрейт : 2 776 Кбит/сек
Максимальный битрейт : 5 000 Кбит/сек
Ширина : 1 280 пикселей
Высота : 720 пикселей
Соотношение сторон : 16:9
Режим частоты кадров : Постоянный
Частота кадров : 25,000 кадров/сек
Цветовое пространство : YUV
Субдискретизация насыщенности : 4:2:0
Битовая глубина : 8 бит
Тип развёртки : Прогрессивная
Бит/(Пиксели*Кадры) : 0.120
Размер потока : 1,16 Гбайт (92%)
Default : Да
Forced : Нет
Цветовой диапазон : Limited
Основные цвета : BT.709
Характеристики трансфера : BT.709
Аудио
Идентификатор : 2
Формат : AC-3
Формат/Информация : Audio Coding 3
Коммерческое название : Dolby Digital
Идентификатор кодека : A_AC3
Продолжительность : 1 ч. 0 м.
Вид битрейта : Постоянный
Битрейт : 192 Кбит/сек
Каналы : 2 канала
Channel layout : L R
Частота : 44,1 КГц
Частота кадров : 28,711 кадров/сек (1536 SPF)
Метод сжатия : С потерями
Размер потока : 82,4 Мбайт (6%)
Service kind : Complete Main
Default : Да
Forced : Нет

Внимание! Раздача ведётся путём добавления новых серий

Раздача ведётся путём добавления новых серий, при каждом добавлении создаётся новый торрент. Чтобы начать докачку новой серии, пользователям необходимо сделать следующее:
- Остановить скачивание.
- Удалить старый торрент у себя из клиента (старые серии удалять не надо).
- Скачать новый торрент и запустить его у себя в клиенте вместо старого, при этом указать клиенту путь в старую папку куда и должно происходить скачивание новых серий.
Ваш клиент при этом должен произвести хеширование (проверку) старой папки (если не производит сам - помогите ему сделать это), и будет докачивать только те серии которых у вас ещё нет. Старые серии при этом не удаляются, а продолжают раздаваться!
Релиз от:

Release was prepared by RG Files-x

Related releases "Шоу Воли" (1):
Added Topic title Size
27 Feb 24 Шоу Воли [1-44 выпуск] (2023) WEBRip от Files-x 29.77 GB
Find all related releases Шоу Воли
[Profile] [PM]
Display posts:    
Reply to topic

Current time is: 04-Mar 04:09

All times are UTC + 3



You cannot post new topics in this forum
You cannot reply to topics in this forum
You cannot edit your posts in this forum
You cannot delete your posts in this forum
You cannot vote in polls in this forum
You cannot attach files in this forum
You cannot download files in this forum