Новенький: Новенькие. Бунт против взрослых [4 сезон: 1-8 серия из 8] (2023) WEBRip-AVC от Files-x

Reply to topic
 
Author Message

Серый1779 ®

Gender: Male

Longevity: 5 years 8 months

Posts: 3620

Location: Украина

Post 24-Aug-2023 11:36

[Quote]

Новенький: Новенькие. Бунт против взрослых Год выпуска: 2023
Жанр: Драма
Выпущено: Россия, Кинокомпания "STAR"T, "Док-Синема"
Режиссер: Оксана Барковская
В ролях: Глеб Калюжный, Анна Демидова (III), Елизавета Запорожец, Иван Рысин, Кира Медведева, Алёна Васина, Иван Непомнящий, Артём Давыдов, Анка Бессонова, Василий Симонов, Дарья Щербакова, Анар Халилов, Анастасия Могучева, Елизавета Говорова, Полина Айнутдинова
О фильме: Макс возвращается из армии, бросив ради службы престижный ВУЗ. Он делает предложение Соне, организовывает пышную свадьбу, но невеста почему-то совсем несчастлива. Девушка забирает маленького сына и уходит к своему другу Диме, который был рядом в трудное время, и их приятельская симпатия переросла во что-то большее. Однако герои не успевают разобраться, кто будет воспитывать малыша - ребенка похищают прямо с детской площадки. Соня уверена, что это сделал Макс. Чтобы найти сына, они возвращаются в маленький город Юровск, куда их вновь приводят все следы.

Качество: WEBRip-AVC
Видео: MPEG-4 AVC, ~ 1600 Кбит/с, 1024x432, 25 кадр/с
Аудио: AC3, 2 ch, 192 Кбит/с
Продолжительность: 8 х ~ 00:42:13
Перевод: Не требуется
Субтитры: Нет
Версия 18+. Внимание! Присутствует ненормативная лексика.

Скриншоты



MediaInfo

General
Unique ID : 183230055026000580908548154124648589620 (0x89D8D33124E420B2A4A3CBB713082934)
Complete name : F:\Новенький.S04.(2023).WEBRip.(AVC).Files-x\01.Новенький.S04.(2023).WEBRip.(AVC).by.Серый1779.Files-x.mkv
Format : Matroska
Format version : Version 2
File size : 541 MiB
Duration : 42 min 13 s
Overall bit rate : 1 793 kb/s
Encoded date : UTC 2023-08-24 07:56:24
Writing application : mkvmerge v7.8.0 ('River Man') 32bit built on Apr 3 2015 12:11:22
Writing library : libebml v1.3.1 + libmatroska v1.4.2
Video
ID : 1
Format : AVC
Format/Info : Advanced Video Codec
Format profile : High@L4.1
Format settings : CABAC / 9 Ref Frames
Format settings, CABAC : Yes
Format settings, RefFrames : 9 frames
Codec ID : V_MPEG4/ISO/AVC
Duration : 42 min 13 s
Bit rate : 1 600 kb/s
Width : 1 024 pixels
Height : 432 pixels
Display aspect ratio : 2.40:1
Frame rate mode : Constant
Frame rate : 25.000 FPS
Color space : YUV
Chroma subsampling : 4:2:0
Bit depth : 8 bits
Scan type : Progressive
Bits/(Pixel*Frame) : 0.145
Stream size : 473 MiB (87%)
Writing library : x264 core 146 r2538 121396c
Encoding settings : cabac=1 / ref=9 / deblock=1:-2:-1 / analyse=0x3:0x133 / me=umh / subme=9 / psy=1 / psy_rd=1.00:0.15 / mixed_ref=1 / me_range=32 / chroma_me=1 / trellis=2 / 8x8dct=1 / cqm=0 / deadzone=21,11 / fast_pskip=0 / chroma_qp_offset=-3 / threads=18 / lookahead_threads=3 / sliced_threads=0 / nr=0 / decimate=1 / interlaced=0 / bluray_compat=0 / constrained_intra=0 / bframes=9 / b_pyramid=2 / b_adapt=2 / b_bias=0 / direct=1 / weightb=1 / open_gop=0 / weightp=2 / keyint=250 / keyint_min=25 / scenecut=40 / intra_refresh=0 / rc=2pass / mbtree=0 / bitrate=1600 / ratetol=1.0 / qcomp=0.60 / qpmin=0 / qpmax=69 / qpstep=4 / cplxblur=20.0 / qblur=0.5 / ip_ratio=1.40 / pb_ratio=1.30 / aq=2:1.00
Default : Yes
Forced : No
Color range : Limited
Color primaries : BT.709
Transfer characteristics : BT.709
Matrix coefficients : BT.709
Audio
ID : 2
Format : AC-3
Format/Info : Audio Coding 3
Format settings, Endianness : Big
Codec ID : A_AC3
Duration : 42 min 13 s
Bit rate mode : Constant
Bit rate : 192 kb/s
Channel(s) : 2 channels
Channel positions : Front: L R
Sampling rate : 48.0 kHz
Frame rate : 31.250 FPS (1536 SPF)
Bit depth : 16 bits
Compression mode : Lossy
Stream size : 58.0 MiB (11%)
Service kind : Complete Main
Default : Yes
Forced : No

Раздача ведётся путём добавления новых серий

Внимание! Раздача ведётся путём добавления новых серий; при каждом добавлении создаётся новый торрент.
Чтобы начать докачку новой серии, пользователям необходимо сделать следующее:
1. Остановить скачивание;
2. Удалить старый торрент у себя из клиента (старые серии удалять не надо);
3. Скачать новый торрент и запустить его у себя в клиенте вместо старого, при этом указать клиенту путь в старую папку куда и должно происходить скачивание новых серий. Ваш клиент при этом должен произвести хеширование (проверку) старой папки и будет докачивать только те серии, которых у вас ещё нет. Старые серии при этом не удаляются, а продолжают раздаваться! Eсли вы уже удалили старые серии, то предотвратить повторную закачку старых серий можно, отжав галочку в соответствующих местах при запуске нового торрента.
Релиз от:

Release was prepared by RG Files-x

[Profile] [PM]
Display posts:    
Reply to topic

Current time is: 18-Jul 10:17

All times are UTC + 3



You cannot post new topics in this forum
You cannot reply to topics in this forum
You cannot edit your posts in this forum
You cannot delete your posts in this forum
You cannot vote in polls in this forum
You cannot attach files in this forum
You cannot download files in this forum