Женский Stand Up [5 сезон: 1-14 выпуск из 17] (2023) WEBRip 1080p от Files-x

Reply to topic
 
Author Message

bond74 ®

Gender: Male

Longevity: 5 years 6 months

Posts: 2403

Post 13-Sep-2023 22:59

[Quote]

Женский Stand Up Год выпуска: 2023
Жанр: ТВ-шоу, юмор
Выпущено: Россия, Comedy Club Production
Ведущий: Ирина Мягкова
В ролях: Зоя Яровицына, Надежда Джабраилова, Александра Муратова, Мария Маркова, Сауле Юсупова, Маргарита Родина, Павел Залуцкий
О фильме: Если ты думаешь, что женщины не ругаются, не жалуются на детей, не шутят о сексе и еще множество всяких «не», то это шоу докажет обратное! Для героинь «Женского стендапа» нет запретных тем. Они честно говорят о том, что их не устраивает в отношениях, высмеивают стереотипы семейной жизни и откровенно заявляют, что быть хорошей матерью вообще-то очень сложно. Хочешь узнать, о чем думают женщины, смотри «Женский стендап»!
Качество: WEBRip 1080p
Видео: MPEG-4 AVC, ~ 4400 Кбит/с, 1920x1080, 25 кадр/с
Аудио: AC3, 2 ch, 192 Кбит/с
Продолжительность: 7 x ~ 00:48:00
Перевод: Не требуется [Русский]
Cубтитры: Нет

Скриншоты




MediaInfo

Общее
Уникальный идентификатор : 194530656759398630686334034222091392913 (0x92593DDFC05622048D0B6FD3804CD791)
Полное имя : C:\films\Женский стендап.s05.2023.WEB-DL 1080p.Files-x\01. Женский стендап.s05.2023.WEB-DL 1080p.Files-x.mkv
Формат : Matroska
Версия формата : Version 2
Размер файла : 1,49 Гбайт
Продолжительность : 45 м. 24 с.
Режим общего битрейта : Переменный
Общий поток : 4 690 Кбит/сек
Дата кодирования : UTC 2023-09-09 21:09:02
Программа кодирования : mkvmerge v7.8.0 ('River Man') 32bit built on Apr 3 2015 12:11:22
Библиотека кодирования : libebml v1.3.1 + libmatroska v1.4.2
Видео
Идентификатор : 1
Формат : AVC
Формат/Информация : Advanced Video Codec
Профиль формата : High@L4.1
Настройки формата : CABAC / 2 Ref Frames
Параметр CABAC формата : Да
Параметр RefFrames формата : 2 кадра
Идентификатор кодека : V_MPEG4/ISO/AVC
Продолжительность : 45 м. 24 с.
Вид битрейта : Переменный
Битрейт : 4 404 Кбит/сек
Максимальный битрейт : 4 500 Кбит/сек
Ширина : 1 920 пикселей
Высота : 1 072 пикселя
Соотношение сторон : 16:9
Режим частоты кадров : Постоянный
Частота кадров : 25,000 кадров/сек
Цветовое пространство : YUV
Субдискретизация насыщенности : 4:2:0
Битовая глубина : 8 бит
Тип развёртки : Прогрессивная
Бит/(Пиксели*Кадры) : 0.086
Размер потока : 1,40 Гбайт (94%)
Default : Да
Forced : Нет
Цветовой диапазон : Limited
Основные цвета : BT.709
Характеристики трансфера : BT.709
Коэффициенты матрицы : BT.709
Аудио
Идентификатор : 2
Формат : AC-3
Формат/Информация : Audio Coding 3
Коммерческое название : Dolby Digital
Идентификатор кодека : A_AC3
Продолжительность : 45 м. 24 с.
Вид битрейта : Постоянный
Битрейт : 192 Кбит/сек
Каналы : 2 канала
Channel layout : L R
Частота : 44,1 КГц
Частота кадров : 28,711 кадров/сек (1536 SPF)
Метод сжатия : С потерями
Задержка видео : -120 мс.
Размер потока : 62,4 Мбайт (4%)
Service kind : Complete Main
Default : Да
Forced : Нет

Внимание! Раздача ведётся путём добавления новых серий

Раздача ведётся путём добавления новых серий, при каждом добавлении создаётся новый торрент. Чтобы начать докачку новой серии, пользователям необходимо сделать следующее:
- Остановить скачивание.
- Удалить старый торрент у себя из клиента (старые серии удалять не надо).
- Скачать новый торрент и запустить его у себя в клиенте вместо старого, при этом указать клиенту путь в старую папку куда и должно происходить скачивание новых серий.
Ваш клиент при этом должен произвести хеширование (проверку) старой папки (если не производит сам - помогите ему сделать это), и будет докачивать только те серии которых у вас ещё нет. Старые серии при этом не удаляются, а продолжают раздаваться!
Релиз от:

Release was prepared by RG Files-x

[Profile] [PM]
Display posts:    
Reply to topic

Current time is: 31-May 01:03

All times are UTC + 3



You cannot post new topics in this forum
You cannot reply to topics in this forum
You cannot edit your posts in this forum
You cannot delete your posts in this forum
You cannot vote in polls in this forum
You cannot attach files in this forum
You cannot download files in this forum