Бедные Абрамовичи [1-14 серии из 14 + Фильм о фильме] (2022) WEB-DLRip-AVC от Files-х

Reply to topic
 
Author Message

Серый1779 ®

Gender: Male

Longevity: 5 years 8 months

Posts: 3620

Location: Украина

Post 26-Sep-2023 10:49

[Quote]

Бедные Абрамовичи
Год выпуска: 2022
Жанр: Комедия
Выпущено: Россия, Кинокомпания "Старт Студио"
Режиссер: Илья Фарфель
В ролях: Гера Сандлер, Анна Банщикова, Семён Стругачёв, Денис Котов, Нина Дворжецкая, Баястан Колдошалы, Павел Майков, Кирилл Ковбас, Грант Тохатян, Ирина Чипиженко, Екатерина Кучма, Дмитрий Лысенков, Лев Малишава, Арсений Сергеев, Анна Антонова
О фильме: Все не так в жизни Бори Абрамовича - долги, потухшие отношения с женой, неуважение детей. И все потому, что много лет назад его предок Хаим провинился: украл и пропил священный свиток Торы. С тех пор их род проклят. По совету духа своего оступившегося деда Боря решает снять проклятие. Но для этого придется вернуться к семейным традициям, освободить дух старика Хаима и вспомнить, как совершать добрые дела.

Качество: WEB-DLRip-AVC
Видео: MPEG-4 AVC, ~ 1600 Кбит/с, 1024x552, 25 кадр/с
Аудио: AC3, 2 ch, 192 Кбит/с
Продолжительность: 15 x ~ 00:29:59
Перевод: Не требуется
Субтитры: Русские

Скриншоты



MediaInfo

General
Unique ID : 303893987617479755198828187218029830407 (0xE49FDA629C411C76745ABCC83A67E107)
Complete name : F:\Бедные Абрамовичи.(2022).WEBRip.(AVC).Files-x\01.Бедные Абрамовичи.(2022).WEBRip.(AVC).by.Серый1779.Files-x.mkv
Format : Matroska
Format version : Version 4 / Version 2
File size : 385 MiB
Duration : 29 min 59 s
Overall bit rate : 1 794 kb/s
Encoded date : UTC 2023-09-26 06:52:56
Writing application : mkvmerge v32.0.0 ('Astral Progressions') 64-bit
Writing library : libebml v1.3.7 + libmatroska v1.5.0
Video
ID : 1
Format : AVC
Format/Info : Advanced Video Codec
Format profile : High@L4.1
Format settings : CABAC / 9 Ref Frames
Format settings, CABAC : Yes
Format settings, RefFrames : 9 frames
Codec ID : V_MPEG4/ISO/AVC
Duration : 29 min 59 s
Bit rate : 1 600 kb/s
Width : 1 024 pixels
Height : 552 pixels
Display aspect ratio : 1.85:1
Frame rate mode : Constant
Frame rate : 25.000 FPS
Color space : YUV
Chroma subsampling : 4:2:0
Bit depth : 8 bits
Scan type : Progressive
Bits/(Pixel*Frame) : 0.113
Stream size : 343 MiB (89%)
Writing library : x264 core 146 r2538 121396c
Encoding settings : cabac=1 / ref=9 / deblock=1:-2:-1 / analyse=0x3:0x133 / me=umh / subme=9 / psy=1 / psy_rd=1.00:0.15 / mixed_ref=1 / me_range=32 / chroma_me=1 / trellis=2 / 8x8dct=1 / cqm=0 / deadzone=21,11 / fast_pskip=0 / chroma_qp_offset=-3 / threads=18 / lookahead_threads=3 / sliced_threads=0 / nr=0 / decimate=1 / interlaced=0 / bluray_compat=0 / constrained_intra=0 / bframes=9 / b_pyramid=2 / b_adapt=2 / b_bias=0 / direct=1 / weightb=1 / open_gop=0 / weightp=2 / keyint=250 / keyint_min=25 / scenecut=40 / intra_refresh=0 / rc=2pass / mbtree=0 / bitrate=1600 / ratetol=1.0 / qcomp=0.60 / qpmin=0 / qpmax=69 / qpstep=4 / cplxblur=20.0 / qblur=0.5 / ip_ratio=1.40 / pb_ratio=1.30 / aq=2:1.00
Default : Yes
Forced : No
Color range : Limited
Color primaries : BT.709
Transfer characteristics : BT.709
Matrix coefficients : BT.709
Audio
ID : 2
Format : AC-3
Format/Info : Audio Coding 3
Format settings, Endianness : Big
Codec ID : A_AC3
Duration : 29 min 59 s
Bit rate mode : Constant
Bit rate : 192 kb/s
Channel(s) : 2 channels
Channel positions : Front: L R
Sampling rate : 48.0 kHz
Frame rate : 31.250 FPS (1536 SPF)
Bit depth : 16 bits
Compression mode : Lossy
Stream size : 41.2 MiB (11%)
Service kind : Complete Main
Default : Yes
Forced : No
Text
ID : 3
Format : UTF-8
Codec ID : S_TEXT/UTF8
Codec ID/Info : UTF-8 Plain Text
Duration : 28 min 55 s
Bit rate : 114 b/s
Count of elements : 409
Stream size : 24.3 KiB (0%)
Default : Yes
Forced : No

Раздача ведётся путём добавления новых серий

Внимание! Раздача ведётся путём добавления новых серий; при каждом добавлении создаётся новый торрент.
Чтобы начать докачку новой серии, пользователям необходимо сделать следующее:
1. Остановить скачивание;
2. Удалить старый торрент у себя из клиента (старые серии удалять не надо);
3. Скачать новый торрент и запустить его у себя в клиенте вместо старого, при этом указать клиенту путь в старую папку куда и должно происходить скачивание новых серий. Ваш клиент при этом должен произвести хеширование (проверку) старой папки и будет докачивать только те серии, которых у вас ещё нет. Старые серии при этом не удаляются, а продолжают раздаваться! Eсли вы уже удалили старые серии, то предотвратить повторную закачку старых серий можно, отжав галочку в соответствующих местах при запуске нового торрента.
Релиз от:

Release was prepared by RG Files-x

[Profile] [PM]
Display posts:    
Reply to topic

Current time is: 18-Jul 11:27

All times are UTC + 3



You cannot post new topics in this forum
You cannot reply to topics in this forum
You cannot edit your posts in this forum
You cannot delete your posts in this forum
You cannot vote in polls in this forum
You cannot attach files in this forum
You cannot download files in this forum