Амазонки в тюрьме / Curral de Mulheres (1982) BDRip-AVC | Авторский

Reply to topic
 
Author Message

sebhort ®

Gender: Male

Longevity: 2 years 3 months

Posts: 4472

Post 02-Oct-2023 21:22

[Quote]

Амазонки в тюрьме / Curral de Mulheres Год выпуска: 1982
Жанр: Эротика
Выпущено: Бразилия
Режиссер: Освальдо де Оливейро
В ролях: Елизабет Хартман, Аурисио Ду Валле, Сандра Граффи, Ванесса Алвес, Марсия Фрага, Лижия ди Паула, Элис Кардосо, Ширли Бенни, Реджина Лопес, Катя Спенсер, Фатима Нюнс
О фильме: Группа белых женщин попадает в тюрьму в центре Бразилии, которую содержат властная хозяйка и ее муж. Их используют в качестве рабов. Они постоянно пытаются бежать. А хозяйка - бисексуалка - использует девчонок не только для работы, но и для своих сексуальных утех.

Качество: BDRip-AVC
Видео: MPEG-4 AVC, 3500 Кбит/с, 960x576
Аудио: Русский, португальский (AC3, 2 ch, 192 Кбит/с)
Продолжительность: 01:33:22
Перевод: Авторский / Антон Алексеев
Cубтитры: английские

Скриншоты

MediaInfo

Общее
Уникальный идентификатор : 242750155489956124499976185923072567541 (0xB69FFAB670049EF8B28BC4F10CE628F5)
Полное имя : D:\Curral.Mulheres.1982.BDRip-AVC..mkv
Формат : Matroska
Версия формата : Version 2
Размер файла : 2,53 Гбайт
Продолжительность : 1 ч. 33 м.
Общий поток : 3 886 Кбит/сек
Частота кадров : 23,976 кадра/сек
Дата кодирования : 2023-10-02 01:54:05 UTC
Программа кодирования : mkvmerge v7.8.0 ('River Man') 32bit built on Apr 3 2015 12:11:22
Библиотека кодирования : libebml v1.3.1 + libmatroska v1.4.2
Видео
Идентификатор : 1
Формат : AVC
Формат/Информация : Advanced Video Codec
Профиль формата : High@L4.1
Настройки формата : CABAC / 12 Ref Frames
Параметр CABAC формата : Да
Параметр RefFrames формата : 12 кадров
Идентификатор кодека : V_MPEG4/ISO/AVC
Продолжительность : 1 ч. 33 м.
Битрейт : 3 500 Кбит/сек
Ширина : 960 пикселей
Высота : 576 пикселей
Соотношение сторон : 5:3
Режим частоты кадров : Постоянный
Частота кадров : 23,976 (24000/1001) кадра/сек
Цветовое пространство : YUV
Субдискретизация насыщенности : 4:2:0
Битовая глубина : 8 бит
Тип развёртки : Прогрессивная
Бит/(Пиксели*Кадры) : 0.264
Размер потока : 2,23 Гбайт (88%)
Библиотека кодирования : x264 core 161 r3053 c347e7a
Настройки программы : cabac=1 / ref=12 / deblock=1:-3:-2 / analyse=0x3:0x113 / me=umh / subme=10 / psy=1 / psy_rd=1.00:0.10 / mixed_ref=1 / me_range=32 / chroma_me=1 / trellis=2 / 8x8dct=1 / cqm=0 / deadzone=21,11 / fast_pskip=0 / chroma_qp_offset=-3 / threads=6 / lookahead_threads=1 / sliced_threads=0 / nr=0 / decimate=0 / interlaced=0 / bluray_compat=0 / constrained_intra=0 / bframes=12 / b_pyramid=2 / b_adapt=2 / b_bias=0 / direct=3 / weightb=1 / open_gop=0 / weightp=2 / keyint=240 / keyint_min=23 / scenecut=40 / intra_refresh=0 / rc=2pass / mbtree=0 / bitrate=3500 / ratetol=1.0 / qcomp=0.60 / qpmin=0 / qpmax=69 / qpstep=4 / cplxblur=20.0 / qblur=0.5 / ip_ratio=1.30 / pb_ratio=1.40 / aq=3:1.00
Язык : Portuguese
Default : Да
Forced : Нет
Цветовой диапазон : Limited
Основные цвета : BT.709
Характеристики трансфера : BT.709
Коэффициенты матрицы : BT.709
Аудио #1
Идентификатор : 2
Формат : AC-3
Формат/Информация : Audio Coding 3
Коммерческое название : Dolby Digital
Идентификатор кодека : A_AC3
Продолжительность : 1 ч. 33 м.
Вид битрейта : Постоянный
Битрейт : 192 Кбит/сек
Каналы : 2 канала
Channel layout : L R
Частота : 48,0 КГц
Частота кадров : 31,250 кадров/сек (1536 SPF)
Метод сжатия : С потерями
Размер потока : 128 Мбайт (5%)
Заголовок : Антон Алексеев
Язык : Russian
Service kind : Complete Main
Default : Да
Forced : Нет
Аудио #2
Идентификатор : 3
Формат : AC-3
Формат/Информация : Audio Coding 3
Коммерческое название : Dolby Digital
Идентификатор кодека : A_AC3
Продолжительность : 1 ч. 33 м.
Вид битрейта : Постоянный
Битрейт : 192 Кбит/сек
Каналы : 2 канала
Channel layout : L R
Частота : 48,0 КГц
Частота кадров : 31,250 кадров/сек (1536 SPF)
Метод сжатия : С потерями
Размер потока : 128 Мбайт (5%)
Язык : Portuguese
Service kind : Complete Main
Default : Нет
Forced : Нет
Текст
Идентификатор : 4
Формат : UTF-8
Идентификатор кодека : S_TEXT/UTF8
Идентификатор кодека/Информация : UTF-8 Plain Text
Язык : English
Default : Нет
Forced : Нет
Меню
00:00:00.000 : en:Глава 01
00:19:16.655 : en:Глава 02
00:39:01.839 : en:Глава 03
00:58:44.020 : en:Глава 04
01:16:19.575 : en:Глава 05
[Profile] [PM]
Display posts:    
Reply to topic

Current time is: 04-Mar 03:32

All times are UTC + 3



You cannot post new topics in this forum
You cannot reply to topics in this forum
You cannot edit your posts in this forum
You cannot delete your posts in this forum
You cannot vote in polls in this forum
You cannot attach files in this forum
You cannot download files in this forum