Порно для всей семьи / PG Porn [1 сезон: 1-8 серий из 8] (2008-2009) WEBRip | Новый звук

Reply to topic
 
Author Message

sebhort ®

Gender: Male

Longevity: 2 years 3 months

Posts: 4472

Post 29-Oct-2023 19:21

[Quote]

Порно для всей семьи / PG Porn Год выпуска: (2008-2009)
Жанр: Комедия
Выпущено: США / The Good Boys Productions, Safran Digital Group
Режиссер: Джеймс Ганн, Питер Элтон
В ролях: Шон Ганн, Джеймс Ганн, Саша Грэй, Нэйтан Филлион, Крэйг Робинсон, Стефен Блэкхарт, Майкл Розенбаум, Тиффани Шепис, МакКензи Фиргенз, Элиза Элиот, Ли Кирк
О фильме: Все самое лучшее, что есть в индустрии 18+ фильмов - невероятные сюжетные ходы, умопомрачительная актерская игра и фантастические диалоги - а за кадром остается, собственно, техническая сторона дела - сам секс.

Качество: WEBRip
Видео: Xvid, 640x480, 640х360, ~1628 кбит/с, 29,970 кадр/с
Аудио: Русский, MP3, 2 ch, 128 Kbps
Продолжительность: 8 ~ 00:04:00
Перевод: Любительский [двухголосый] Новый звук
Cубтитры: Нет

Скриншоты


MediaInfo

Общее
Полное имя : L:\Разное\J.G.PG.Porn.s01.WebRip.rus.eng.neo-sound\J.G.PG.Porn.s01e01.WebRip.rus.eng.neo-sound.avi
Формат : AVI
Формат/Информация : Audio Video Interleave
Настройки формата : BitmapInfoHeader / WaveFormatEx
Размер файла : 33,3 Мбайт
Продолжительность : 2 м. 27 с.
Общий поток : 1 903 Кбит/сек
Частота кадров : 29,970 кадров/сек
Программа кодирования : VirtualDubMod 1.5.10.2 (build 2540/release)
Библиотека кодирования : VirtualDubMod build 2540/release
Видео
Идентификатор : 0
Формат : MPEG-4 Visual
Профиль формата : Simple@L3
Параметр BVOP формата : Нет
Параметр QPel формата : Нет
Параметр GMC формата : Без точки перехода
Параметр матрицы формата : Default (H.263)
Идентификатор кодека : XVID
Идентификатор кодека/Подсказка : XviD
Продолжительность : 2 м. 27 с.
Битрейт : 1 628 Кбит/сек
Ширина : 640 пикселей
Высота : 480 пикселей
Соотношение сторон : 4:3
Частота кадров : 29,970 (30000/1001) кадров/сек
Цветовое пространство : YUV
Субдискретизация насыщенности : 4:2:0
Битовая глубина : 8 бит
Тип развёртки : Прогрессивная
Метод сжатия : С потерями
Бит/(Пиксели*Кадры) : 0.177
Размер потока : 28,5 Мбайт (86%)
Библиотека кодирования : XviD 1.1.2 (2006-11-01)
Аудио #1
Идентификатор : 1
Формат : MPEG Audio
Версия формата : Version 1
Профиль формата : Layer 3
Настройки формата : Joint stereo / MS Stereo
Идентификатор кодека : 55
Идентификатор кодека/Подсказка : MP3
Продолжительность : 2 м. 27 с.
Вид битрейта : Постоянный
Битрейт : 128 Кбит/сек
Каналы : 2 канала
Частота : 44,1 КГц
Метод сжатия : С потерями
Размер потока : 2,24 Мбайт (7%)
Выравнивание : Разделение по промежуткам
Продолжительность промежутка : 33 мс. (1,00 видеокадр)
Время предзагрузки промежутка : 500 мс.
Аудио #2
Идентификатор : 2
Формат : MPEG Audio
Версия формата : Version 1
Профиль формата : Layer 3
Настройки формата : Joint stereo / MS Stereo
Идентификатор кодека : 55
Идентификатор кодека/Подсказка : MP3
Продолжительность : 2 м. 27 с.
Вид битрейта : Постоянный
Битрейт : 128 Кбит/сек
Каналы : 2 канала
Частота : 44,1 КГц
Метод сжатия : С потерями
Размер потока : 2,24 Мбайт (7%)
Выравнивание : Разделение по промежуткам
Продолжительность промежутка : 33 мс. (1,00 видеокадр)
Время предзагрузки промежутка : 500 мс.

Внимание! Раздача ведётся путём добавления новых серий

Раздача ведётся путём добавления новых серий, при каждом добавлении создаётся новый торрент. Чтобы начать докачку новой серии, пользователям необходимо сделать следующее:
- Остановить скачивание.
- Удалить старый торрент у себя из клиента (старые серии удалять не надо).
- Скачать новый торрент и запустить его у себя в клиенте вместо старого, при этом указать клиенту путь в старую папку куда и должно происходить скачивание новых серий.
Ваш клиент при этом должен произвести хеширование (проверку) старой папки (если не производит сам - помогите ему сделать это), и будет докачивать только те серии которых у вас ещё нет. Старые серии при этом не удаляются, а продолжают раздаваться!
[Profile] [PM]
Display posts:    
Reply to topic

Current time is: 04-Mar 05:43

All times are UTC + 3



You cannot post new topics in this forum
You cannot reply to topics in this forum
You cannot edit your posts in this forum
You cannot delete your posts in this forum
You cannot vote in polls in this forum
You cannot attach files in this forum
You cannot download files in this forum