Трудные подростки [5 сезон: 1-12 серии из 12] (2023) WEBRip 720p от Files-x

Reply to topic
 
Author Message

bond74 ®

Gender: Male

Longevity: 5 years 5 months

Posts: 2364

Post 16-Dec-2023 14:46

[Quote]

Трудные подростки
Год выпуска: 2023
Жанр: Драма, комедия, спорт
Выпущено: Россия, Кинокомпания "Prospect Production"
Режиссер: Александр Цой
В ролях: Никита Волков, Виталий Андреев, Анастасия Крылова, Тимофей Елецкий, Глеб Калюжный, Алёна Швиденкова, Владимир Гарцунов, Святослав Рогожан, Мила Ершова, Сергей Новосад, Александр Лыков, Анастасия Красовская, Вильма Кутавичюте, Виктория Буцких, Дарья Алыпова, Екатерина Молоховская, Александр Булатов, Анар Халилов
О фильме: В пятом сезоне трудные подростки останутся без своего тренера Антона Ковалева, который ушел тренировать профессиональную команду. Теперь Ковалев и ребята - злейшие враги. Удастся ли им воспользоваться шансом покинуть центр трудных подростков без своего наставника? Смогут ли они простить друг друга?

Качество: WEB-DL (720p)
Видео: MPEG-4 AVC, ~ 2443 Кбит/с, 1280x720
Аудио: AC3, 2 ch, 192 Кбит/с
Продолжительность: 2 x ~ 00:25:09
Перевод: Не требуется
Субтитры: Нет
Версия 18+. Внимание! Присутствует не нормативная лексика.

Скриншоты



MediaInfo

Общее
Уникальный идентификатор : 236905101202769870928839657792293980657 (0xB23A4349617431F981C0066689D249F1)
Полное имя : C:\ШОУ\Трудные подростки.s05.2023.WEB-DL 720p.Files-x\01. Трудные подростки.s05.2023.WEB-DL 720p.Files-x.mkv
Формат : Matroska
Версия формата : Version 2
Размер файла : 483 Мбайт
Продолжительность : 25 м. 8 с.
Общий поток : 2 689 Кбит/сек
Частота кадров : 25,000 кадров/сек
Дата кодирования : 2023-12-16 09:42:47 UTC
Программа кодирования : mkvmerge v5.8.0 ('No Sleep / Pillow') built on Sep 2 2012 15:37:04
Библиотека кодирования : libebml v1.2.3 + libmatroska v1.3.0
Видео
Идентификатор : 1
Формат : AVC
Формат/Информация : Advanced Video Codec
Профиль формата : High@L3.1
Настройки формата : CABAC / 3 Ref Frames
Параметр CABAC формата : Да
Параметр RefFrames формата : 3 кадра
Идентификатор кодека : V_MPEG4/ISO/AVC
Продолжительность : 25 м. 8 с.
Битрейт : 2 443 Кбит/сек
Ширина : 1 280 пикселей
Высота : 720 пикселей
Соотношение сторон : 16:9
Режим частоты кадров : Постоянный
Частота кадров : 25,000 кадров/сек
Цветовое пространство : YUV
Субдискретизация насыщенности : 4:2:0
Битовая глубина : 8 бит
Тип развёртки : Прогрессивная
Бит/(Пиксели*Кадры) : 0.106
Размер потока : 439 Мбайт (91%)
Язык : Russian
Default : Да
Forced : Нет
Аудио
Идентификатор : 2
Формат : AC-3
Формат/Информация : Audio Coding 3
Коммерческое название : Dolby Digital
Идентификатор кодека : A_AC3
Продолжительность : 25 м. 8 с.
Вид битрейта : Постоянный
Битрейт : 192 Кбит/сек
Каналы : 2 канала
Channel layout : L R
Частота : 48,0 КГц
Частота кадров : 31,250 кадров/сек (1536 SPF)
Метод сжатия : С потерями
Размер потока : 34,5 Мбайт (7%)
Язык : Russian
Service kind : Complete Main
Default : Да
Forced : Нет

Раздача ведётся путём добавления новых серий

Внимание! Раздача ведётся путём добавления новых серий; при каждом добавлении создаётся новый торрент.
Чтобы начать докачку новой серии, пользователям необходимо сделать следующее:
1. Остановить скачивание;
2. Удалить старый торрент у себя из клиента (старые серии удалять не надо);
3. Скачать новый торрент и запустить его у себя в клиенте вместо старого, при этом указать клиенту путь в старую папку куда и должно происходить скачивание новых серий. Ваш клиент при этом должен произвести хеширование (проверку) старой папки и будет докачивать только те серии, которых у вас ещё нет. Старые серии при этом не удаляются, а продолжают раздаваться! Eсли вы уже удалили старые серии, то предотвратить повторную закачку старых серий можно, отжав галочку в соответствующих местах при запуске нового торрента.
Релиз от:

Release was prepared by RG Files-x

[Profile] [PM]
Display posts:    
Reply to topic

Current time is: 20-Apr 17:12

All times are UTC + 3



You cannot post new topics in this forum
You cannot reply to topics in this forum
You cannot edit your posts in this forum
You cannot delete your posts in this forum
You cannot vote in polls in this forum
You cannot attach files in this forum
You cannot download files in this forum