Выжившие: Пробуждение [1-2 сезоны: 1-16 серии из 16] (2021-2024) WEBRip от Files-x

Reply to topic
 
Author Message

bond74 ®

Gender: Male

Longevity: 5 years 5 months

Posts: 2364

Post 08-Feb-2024 20:43

[Quote]

Выжившие: Пробуждение Год выпуска: 2021-2024
Жанр: Драма, триллер, фантастика
Выпущено: Россия, Кинокомпания "Look Film", "Okko Studios"
Режиссер: Андрей Прошкин
В ролях: Алексей Филимонов, Артур Смольянинов, Дарья Савельева, Валентина Лукащук, Алексей Розин, Анна Слю, Глеб Пускепалис, Дарья Екамасова, Виталия Корниенко, Яна Сексте, Константин Фисенко, Филипп Авдеев, Наталья Бардо, Анатолий Попов (II), Сергей Бондарчук мл.
О фильме: Города опустели, заводы остановились, оставшиеся в живых люди объединяются в небольшие поселения. Они пасут овец, гонят спирт, чтобы откупиться от местных бандитов, и постоянно борются со сном. Всех, кто проспит дольше двух часов, ждет летаргия и смерть. Жители одного из поселков узнают, что существует город, где нашли способ пробуждать от сонной болезни. Они готовы бросить все ради смутной надежды на счастливое будущее. Но в городе не рады гостям. Оказывается, что после пробуждения люди меняются — жены перестают любить своих мужей, а матери ничего не чувствуют к своим детям. Общество раскалывается на неспящих и избранных — пробужденных.
Качество: WEBRip
Видео: XviD, ~ 1574 Кбит/с, 720x304
Аудио №1: AC3, 2 ch, 192 Кбит/с
Аудио №1: AC3, 6 ch, 384 Кбит/с | С цензурой
Аудио №2: AC3, 6 ch, 384 Кбит/с | Без цензуры (18+)
Продолжительность: 10 х ~ 00:57:25
Перевод: Не требуется
Cубтитры: Нет
Версия 18+. Внимание! Присутствует не нормативная лексика.

Скриншоты




MediaInfo

Общее
Полное имя : D:\Выжившие.S02.2024.WEB-DLRip.Files-x\02. Выжившие.S02.2024.WEB-DLRip.Files-x.avi
Формат : AVI
Формат/Информация : Audio Video Interleave
Настройки формата : BitmapInfoHeader / WaveFormatEx
Размер файла : 772 Мбайт
Продолжительность : 45 м. 49 с.
Общий поток : 2 357 Кбит/сек
Частота кадров : 25,000 кадров/сек
Программа кодирования : VirtualDubMod 1.5.10.3 | www.virtualdub-fr.org || (build 2550/release)
Библиотека кодирования : VirtualDubMod build 2550/release
Видео
Идентификатор : 0
Формат : MPEG-4 Visual
Профиль формата : Advanced Simple@L5
Настройки формата : BVOP1 / Custom Matrix
Параметр BVOP формата : 1
Параметр QPel формата : Нет
Параметр GMC формата : Без точки перехода
Параметр матрицы формата : Выборочная
Идентификатор кодека : XVID
Идентификатор кодека/Подсказка : XviD
Продолжительность : 45 м. 49 с.
Битрейт : 1 574 Кбит/сек
Ширина : 720 пикселей
Высота : 304 пикселя
Соотношение сторон : 2,35:1
Частота кадров : 25,000 кадров/сек
Цветовое пространство : YUV
Субдискретизация насыщенности : 4:2:0
Битовая глубина : 8 бит
Тип развёртки : Прогрессивная
Метод сжатия : С потерями
Бит/(Пиксели*Кадры) : 0.288
Размер потока : 516 Мбайт (67%)
Библиотека кодирования : XviD 73
Аудио #1
Идентификатор : 1
Формат : AC-3
Формат/Информация : Audio Coding 3
Коммерческое название : Dolby Digital
Идентификатор кодека : 2000
Продолжительность : 45 м. 49 с.
Вид битрейта : Постоянный
Битрейт : 384 Кбит/сек
Каналы : 6 каналов
Channel layout : L R C LFE Ls Rs
Частота : 48,0 КГц
Частота кадров : 31,250 кадров/сек (1536 SPF)
Метод сжатия : С потерями
Размер потока : 126 Мбайт (16%)
Выравнивание : Разделение по промежуткам
Продолжительность промежутка : 40 мс. (1,00 видеокадр)
Время предзагрузки промежутка : 500 мс.
Service kind : Complete Main
Аудио #2
Идентификатор : 2
Формат : AC-3
Формат/Информация : Audio Coding 3
Коммерческое название : Dolby Digital
Идентификатор кодека : 2000
Продолжительность : 45 м. 49 с.
Вид битрейта : Постоянный
Битрейт : 384 Кбит/сек
Каналы : 6 каналов
Channel layout : L R C LFE Ls Rs
Частота : 48,0 КГц
Частота кадров : 31,250 кадров/сек (1536 SPF)
Метод сжатия : С потерями
Размер потока : 126 Мбайт (16%)
Выравнивание : Разделение по промежуткам
Продолжительность промежутка : 40 мс. (1,00 видеокадр)
Время предзагрузки промежутка : 500 мс.
Заголовок : 18+
Service kind : Complete Main

Раздача ведётся путём добавления новых серий

Внимание! Раздача ведётся путём добавления новых серий; при каждом добавлении создаётся новый торрент.
Чтобы начать докачку новой серии, пользователям необходимо сделать следующее:
1. Остановить скачивание;
2. Удалить старый торрент у себя из клиента (старые серии удалять не надо);
3. Скачать новый торрент и запустить его у себя в клиенте вместо старого, при этом указать клиенту путь в старую папку куда и должно происходить скачивание новых серий. Ваш клиент при этом должен произвести хеширование (проверку) старой папки и будет докачивать только те серии, которых у вас ещё нет. Старые серии при этом не удаляются, а продолжают раздаваться! Eсли вы уже удалили старые серии, то предотвратить повторную закачку старых серий можно, отжав галочку в соответствующих местах при запуске нового торрента.
Релиз от:

Release was prepared by RG Files-x

[Profile] [PM]
Display posts:    
Reply to topic

Current time is: 20-Apr 17:40

All times are UTC + 3



You cannot post new topics in this forum
You cannot reply to topics in this forum
You cannot edit your posts in this forum
You cannot delete your posts in this forum
You cannot vote in polls in this forum
You cannot attach files in this forum
You cannot download files in this forum