Крепкие орешки [3 сезон: 1-14 серии из 32] (2023) SATRip, WEB-DLRip от Files-x

Reply to topic
 
Author Message

Nicodem ®

Gender: Male

Longevity: 5 years 3 months

Posts: 1399

Post 11-Feb-2024 16:26

[Quote]

Крепкие орешки
Год выпуска: 2023
Жанр: Детектив
Выпущено: Россия, "Триикс Медиа"
Режиссер: Дмитрий Аверин (II)
В ролях: Филипп Азаров, Борис Бедросов, Гавриил Федотов, Станислав Ткаченко, Олег Метелев, Наталья Рогова, Евгений Тымченко, Владимир Марьянов, Лайла Фахр, Николай Яковлев (III), Кристина Юдичева, Глафира Козулина, Антон Заичкин, Роман Мамонтов, Валентина Муравская, Михаил Караваев, Мария Русских, Алёна Баркова, Надежда Пенкина, Екатерина Зорина, Олег Флеер, Ксения Пацинская, Сергей Костенко, Илья Божко, Степан Пивкин, Дмитрий Соловьёв (II), Юлия Скороход, Фёдор Маяцкий, Татьяна Плетнёва, Богдан Хорохорин, Дмитрий Комлев, Вячеслав Аркунов, Владислав Бургард, Елена Донина
О фильме: В управлении полиции по Комендатскому району произошли кадровые изменения. Сюда из Купчинского управления переводят дерзкого капитана Виктора Ульянова и московского мажора капитана Олега Орлова. После их появления в отделе началось негласное соревнование между "старичками" и "молодыми" за раскрываемость дел и похвалу от начальства. Опыт столкнулся с прытью. Остроты сюжету добавляет и то, что новые сотрудники отдела – Орлов и Ульянов – такие же противоположности друг друга, как Лавров и Романов. Для Ульянова важно быстро получить результат, а цель всегда оправдывает средства. Орлов – сын высокопоставленного московского чиновника, но своим происхождением не кичится и старается это скрывать. Он и в Петербург-то переехал из столицы только для того, чтобы доказать себе и своему отцу, что он может всего добиться сам. Напарники встретили "золотого мальчика" без особой симпатии...

Качество: SATRip, WEB-DLRip
Видео: XviD, ~ 1607 Кбит/с, 720x400, 25 кадр/с
Аудио: AC3, 2 ch, 192 Кбит/с
Продолжительность: 14 x ~ 00:38:50, 5 х ~ 00:10:00
Перевод: Не требуется
Cубтитры: Русские (тока в вебе)

Скриншоты



MediaInfo

General
Complete name : C:65.Крепкие орешки.s03.E01.(2023).SATRip.by.Nicodem.Files-x.avi
Format : AVI
Format/Info : Audio Video Interleave
File size : 510 MiB
Duration : 39mn 24s
Overall bit rate : 1 809 Kbps
Writing application : VirtualDubMod 1.5.10.3 | www.virtualdub-fr.org || (build 2550/release)
Writing library : VirtualDubMod build 2550/release
Video
ID : 0
Format : MPEG-4 Visual
Format profile : Advanced Simple@L5
Format settings, BVOP : 1
Format settings, QPel : No
Format settings, GMC : No warppoints
Format settings, Matrix : Custom
Codec ID : XVID
Codec ID/Hint : XviD
Duration : 39mn 24s
Bit rate : 1 607 Kbps
Width : 720 pixels
Height : 400 pixels
Display aspect ratio : 16:9
Frame rate : 25.000 fps
Color space : YUV
Chroma subsampling : 4:2:0
Bit depth : 8 bits
Scan type : Progressive
Compression mode : Lossy
Bits/(Pixel*Frame) : 0.223
Stream size : 453 MiB (89%)
Writing library : XviD 73
Audio
ID : 1
Format : AC-3
Format/Info : Audio Coding 3
Mode extension : CM (complete main)
Codec ID : 2000
Duration : 39mn 24s
Bit rate mode : Constant
Bit rate : 192 Kbps
Channel(s) : 2 channels
Channel positions : Front: L R
Sampling rate : 48.0 KHz
Bit depth : 16 bits
Compression mode : Lossy
Stream size : 54.1 MiB (11%)
Alignment : Split accross interleaves
Interleave, duration : 40 ms (1.00 video frame)
Interleave, preload duration : 500 ms

Бонус

1.Интервью героев детектива Крепкие орешки-3. Друг о друге.
В преддверии премьеры мы узнаем, что думают друг о друге герои детектива Крепкие орешки-3!
2.Эксклюзивно актер Станислав Ткаченко, исполняющий роль капитана Орлова, рассказал о своем персонаже. Крепкие орешки-3
Эксклюзивно актер Станислав Ткаченко, исполняющий роль капитана Орлова, рассказал о своем персонаже. Сложно ли ему было присоединиться к проекту? Какие интересные случаи происходили на съемочной площадке? Было ли соперничество со старыми "орешками"?
3.Эксклюзивно актер Гавриил Федотов, исполняющий роль капитана Ульянова, рассказал про своего персонажа. Крепкие орешки-3
Эксклюзивно актер Гавриил Федотов, исполняющий роль капитана Ульянова, рассказал про своего персонажа. Сложно ли ему было присоединиться к проекту? Есть ли у Гавриила уникальные способности? Как актер готовится к съемкам и что он пожелает своему персонажу?
4.Эксклюзивное интервью Филиппа Азарова! Крепкие орешки-3
Сложно ли Филиппу Азарову играть в продолжении сериала "Крепкие орешки"? Каким актер видит своего персонажа? Как Лавров и Романов встретили новеньких?
5.Эксклюзивное интервью Бориса Бедросова! Крепкие орешки-3
Чему, по мнению Бориса Бедросова, Лавров научил Романова? Каким актер видит своего персонажа? Случались ли интересные истории на съемочной площадке детектива "Крепкие орешки-3"?

Содержание

(65) 1 серия "V значит вендетта"
(66) 2 серия "Отступники"
(67) 3 серия "Игра по понижение"
(68) 4 серия "Остров проклятыых"
(69) 5 серия "Исчезнувшая"
(70) 6 серия "Хижина в лесу"
(71) 7 серия "Достучаться до небес"
(72) 8 серия "Основной инстинкт"
(73) 9 серия "Смертельное оружие"
(74) 10 серия "Гнев человеческий"
(75) 11 серия "Окно во двор"
(76) 12 серия "Заложница"
(77) 13 серия "Сломанные цветы"
(78) 14 серия "Жестокие игры"
(79) 15 серия "Гамбит"
(80) 16 серия "Жизнь других"
(81) 17 серия "Куб"
(82) 18 серия "Бриллианты навсегда"
(83) 19 серия "Анализируй это"
(84) 20 серия "Иствикские ведьмы"
(85) 21 серия "Управление гневом"
(86) 22 серия "Подозрительные лица"
(87) 23 серия "Карнавал дьявола"
(88) 24 серия "Сотовый"
(89) 25 серия ""
(90) 26 серия ""
(91) 27 серия ""
(92) 28 серия ""
(93) 29 серия ""
(94) 30 серия ""
(95) 31 серия ""
(96) 32 серия ""

Раздача ведётся путём добавления новых серий

Внимание! Раздача ведётся путём добавления новых серий; при каждом добавлении создаётся новый торрент.
Чтобы начать докачку новой серии, пользователям необходимо сделать следующее:
1. Остановить скачивание;
2. Удалить старый торрент у себя из клиента (старые серии удалять не надо);
3. Скачать новый торрент и запустить его у себя в клиенте вместо старого, при этом указать клиенту путь в старую папку куда и должно происходить скачивание новых серий. Ваш клиент при этом должен произвести хеширование (проверку) старой папки и будет докачивать только те серии, которых у вас ещё нет. Старые серии при этом не удаляются, а продолжают раздаваться! Eсли вы уже удалили старые серии, то предотвратить повторную закачку старых серий можно, отжав галочку в соответствующих местах при запуске нового торрента.
Релиз от:

Release was prepared by RG Files-x

[Profile] [PM]
Display posts:    
Reply to topic

Current time is: 04-Mar 05:55

All times are UTC + 3



You cannot post new topics in this forum
You cannot reply to topics in this forum
You cannot edit your posts in this forum
You cannot delete your posts in this forum
You cannot vote in polls in this forum
You cannot attach files in this forum
You cannot download files in this forum