Постучись в мою дверь в Москве [1-40 серии из 60] (2024) WEBRip-AVC от Files-х

Reply to topic
 
Author Message

Серый1779 ®

Gender: Male

Longevity: 5 years 5 months

Posts: 3511

Location: Украина

Post 12-Feb-2024 18:18

[Quote]

Постучись в мою дверь в Москве Год выпуска: 2024
Жанр: Мелодрама
Выпущено: Россия, Okko Studios, Медиаслово
Режиссер: Всеволод Аравин
В ролях: Никита Волков, Лиана Гриба, Александра Тулинова, Екатерина Шумакова, Юлия Серина, Максим Белбородов, Влад Соколовский, Анна Невская, Екатерина Волкова (I), Игорь Жижикин, Марина Кравец, Лео Канделаки, Саша Стоун (II), Константин Кожев, Николай Сердцев
О фильме: Круглая отличница Саша Гордеева мечтала о карьере ландшафтного дизайнера, но вылетела с последнего курса университета из-за того, что ее именная стипендия была аннулирована без объяснения причины. Обидевшись, девушка решает отомстить владельцу компании, которая отняла у нее стипендию, молодому и талантливому архитектору Сергею Градскому. Но их знакомство оборачивается неожиданностью — Саша получит не только возможность доучиться, но и место в компании Сергея, если два месяца будет притворяться его девушкой, чтобы он смог вернуть свою бывшую.
Качество: WEBRip-AVC
Видео: MPEG-4 AVC, ~ 1600 Кбит/с, 1024x512, 25 кадр/с
Аудио: AC3, 6 ch, 384 Кбит/с
Продолжительность: 40 х ~ 00:44:35
Перевод: Не требуется
Cубтитры: Нет

Скриншоты



MediaInfo

General
Unique ID : 233616241782092715445598571143213166854 (0xAFC0D9FF76FFAB85A498A9D019B93106)
Complete name : F:\Постучись в мою дверь в Москве.(2024).WEBRip.(AVC).Files-x\01.Постучись в мою дверь в Москве.(2024).WEBRip.(AVC).by.Серый1779.Files-x.mkv
Format : Matroska
Format version : Version 2
File size : 633 MiB
Duration : 44 min 35 s
Overall bit rate : 1 985 kb/s
Encoded date : UTC 2024-02-12 14:10:13
Writing application : mkvmerge v7.8.0 ('River Man') 32bit built on Apr 3 2015 12:11:22
Writing library : libebml v1.3.1 + libmatroska v1.4.2
Video
ID : 1
Format : AVC
Format/Info : Advanced Video Codec
Format profile : High@L4.1
Format settings : CABAC / 9 Ref Frames
Format settings, CABAC : Yes
Format settings, RefFrames : 9 frames
Codec ID : V_MPEG4/ISO/AVC
Duration : 44 min 35 s
Bit rate : 1 600 kb/s
Width : 1 024 pixels
Height : 512 pixels
Display aspect ratio : 2.000
Frame rate mode : Constant
Frame rate : 25.000 FPS
Color space : YUV
Chroma subsampling : 4:2:0
Bit depth : 8 bits
Scan type : Progressive
Bits/(Pixel*Frame) : 0.122
Stream size : 498 MiB (79%)
Writing library : x264 core 146 r2538 121396c
Encoding settings : cabac=1 / ref=9 / deblock=1:-2:-1 / analyse=0x3:0x133 / me=umh / subme=9 / psy=1 / psy_rd=1.00:0.15 / mixed_ref=1 / me_range=32 / chroma_me=1 / trellis=2 / 8x8dct=1 / cqm=0 / deadzone=21,11 / fast_pskip=0 / chroma_qp_offset=-3 / threads=18 / lookahead_threads=3 / sliced_threads=0 / nr=0 / decimate=1 / interlaced=0 / bluray_compat=0 / constrained_intra=0 / bframes=9 / b_pyramid=2 / b_adapt=2 / b_bias=0 / direct=1 / weightb=1 / open_gop=0 / weightp=2 / keyint=250 / keyint_min=25 / scenecut=40 / intra_refresh=0 / rc=2pass / mbtree=0 / bitrate=1600 / ratetol=1.0 / qcomp=0.60 / qpmin=0 / qpmax=69 / qpstep=4 / cplxblur=20.0 / qblur=0.5 / ip_ratio=1.40 / pb_ratio=1.30 / aq=2:1.00
Default : Yes
Forced : No
Color range : Limited
Color primaries : BT.709
Transfer characteristics : BT.709
Matrix coefficients : BT.709
Audio
ID : 2
Format : AC-3
Format/Info : Audio Coding 3
Format settings, Endianness : Big
Codec ID : A_AC3
Duration : 44 min 35 s
Bit rate mode : Constant
Bit rate : 384 kb/s
Channel(s) : 6 channels
Channel positions : Front: L C R, Side: L R, LFE
Sampling rate : 48.0 kHz
Frame rate : 31.250 FPS (1536 SPF)
Bit depth : 16 bits
Compression mode : Lossy
Stream size : 122 MiB (19%)
Service kind : Complete Main
Default : Yes
Forced : No

Внимание! Раздача ведётся путём добавления новых серий

Раздача ведётся путём добавления новых серий, при каждом добавлении создаётся новый торрент. Чтобы начать докачку новой серии, пользователям необходимо сделать следующее:
- Остановить скачивание.
- Удалить старый торрент у себя из клиента (старые серии удалять не надо).
- Скачать новый торрент и запустить его у себя в клиенте вместо старого, при этом указать клиенту путь в старую папку куда и должно происходить скачивание новых серий.
Ваш клиент при этом должен произвести хеширование (проверку) старой папки (если не производит сам - помогите ему сделать это), и будет докачивать только те серии которых у вас ещё нет. Старые серии при этом не удаляются, а продолжают раздаваться!
Релиз от:

Release was prepared by RG Files-x

[Profile] [PM]
Display posts:    
Reply to topic

Current time is: 20-Apr 16:27

All times are UTC + 3



You cannot post new topics in this forum
You cannot reply to topics in this forum
You cannot edit your posts in this forum
You cannot delete your posts in this forum
You cannot vote in polls in this forum
You cannot attach files in this forum
You cannot download files in this forum