20/22 [1-4 серии из 4] (2024) WEB-DL 1080p от Files-x

Reply to topic
 
Author Message

Nicodem ®

Gender: Male

Longevity: 5 years 5 months

Posts: 1422

Post 24-Feb-2024 02:00

[Quote]

20/22
Год выпуска: 2024
Жанр: Боевик, военный, драма
Выпущено: Россия, Первый канал, BBG PRODUCTION при поддержке Института развития интернета, Военкино, Администрации Донецкой Народной Республики
Режиссер: Андрей Симонов
В ролях: Аристарх Венес, Дарья Кукарских, Александр Югов, Алексей Шевченков, Владимир Карпук, Дмитрий Богдан, Валентин Смирнитский, Сергей Черданцев, Александр Лыков, Хильда Кармен, Виктория Токарева (II), Лев Семашков, Александр Давыдов (III), Кирилл Кузнецов, Юлия Бруякина, Владимир Лавров, Мария Романова
О фильме: Студент журфака Данил отправляется добровольцем в зону проведения СВО, устав от столичного лицемерия. Он сам из Севастополя, и знает про соседнее государство чуть больше, чем его друзья. Его антивоенно настроенная девушка – Алиса, поняв, что ждет ребенка, решает уберечь своего молодого человека от фатальной ошибки и едет за ним, чтобы вернуть. Найти любимого в хаосе войны оказывается непросто. За несколько недель, проведенных в аду штурма Мариуполя, ребята поймут, что мир живет не только в рамках их представлений, а их любовь пройдет испытание на прочность...
Качество: WEB-DL 1080p
Видео: MPEG-4 AVC, ~ 3440 Кбит/с, 1920х1080, 25 кадр/с
Аудио: AC3, 2 ch, 192 Кбит/с
Продолжительность: 4 х 00:49:00
Перевод: Не требуется
Субтитры: Нет

Скриншоты



MediaInfo

General
Unique ID : 247976496565146530658991673429387480946 (0xBA8E8938DCD7ABA089ACE983DC1D8F72)
Complete name : C:20.22.s01.E01.(2024).WEB-DL (1080p).by.Nicodem.Files-x.mkv
Format : Matroska
File size : 1.26 GiB
Duration : 48mn 30s
Overall bit rate : 3 706 Kbps
Encoded date : UTC 2024-02-23 18:55:37
Writing application : mkvmerge v7.8.0 ('River Man') 32bit built on Apr 3 2015 12:11:22
Writing library : libebml v1.3.1 + libmatroska v1.4.2
Video
ID : 1
Format : AVC
Format/Info : Advanced Video Codec
Format profile : High@L4.1
Format settings, CABAC : Yes
Format settings, ReFrames : 4 frames
Codec ID : V_MPEG4/ISO/AVC
Duration : 48mn 30s
Bit rate mode : Constant
Bit rate : 3 440 Kbps
Nominal bit rate : 4 800 Kbps / 4 800 Kbps
Width : 1 920 pixels
Height : 1 080 pixels
Display aspect ratio : 16:9
Frame rate mode : Variable
Frame rate : 25.000 fps
Color space : YUV
Chroma subsampling : 4:2:0
Bit depth : 8 bits
Scan type : Progressive
Bits/(Pixel*Frame) : 0.066
Stream size : 1.17 GiB (93%)
Writing library : x264 core 161
Encoding settings : cabac=1 / ref=2 / deblock=1:0:0 / analyse=0x3:0x113 / me=hex / subme=6 / psy=1 / psy_rd=1.00:0.00 / mixed_ref=1 / me_range=16 / chroma_me=1 / trellis=1 / 8x8dct=1 / cqm=0 / deadzone=21,11 / fast_pskip=1 / chroma_qp_offset=-2 / threads=4 / lookahead_threads=1 / sliced_threads=0 / nr=0 / decimate=1 / interlaced=0 / bluray_compat=0 / constrained_intra=0 / bframes=3 / b_pyramid=2 / b_adapt=1 / b_bias=0 / direct=1 / weightb=1 / open_gop=0 / weightp=1 / keyint=250 / keyint_min=25 / scenecut=0 / intra_refresh=0 / rc_lookahead=30 / rc=cbr / mbtree=1 / bitrate=4800 / ratetol=1.0 / qcomp=0.60 / qpmin=0 / qpmax=69 / qpstep=4 / vbv_maxrate=4800 / vbv_bufsize=1200 / nal_hrd=cbr / filler=1 / ip_ratio=1.40 / aq=1:1.00
Matrix coefficients : BT.709-5, BT.1361, IEC 61966-2-4 709, SMPTE RP177
Audio
ID : 2
Format : AC-3
Format/Info : Audio Coding 3
Mode extension : CM (complete main)
Codec ID : A_AC3
Duration : 48mn 30s
Bit rate mode : Constant
Bit rate : 192 Kbps
Channel(s) : 2 channels
Channel positions : Front: L R
Sampling rate : 48.0 KHz
Bit depth : 16 bits
Compression mode : Lossy
Delay relative to video : -43ms
Stream size : 66.6 MiB (5%)

Раздача ведётся путём добавления новых серий

Внимание! Раздача ведётся путём добавления новых серий; при каждом добавлении создаётся новый торрент.
Чтобы начать докачку новой серии, пользователям необходимо сделать следующее:
1. Остановить скачивание;
2. Удалить старый торрент у себя из клиента (старые серии удалять не надо);
3. Скачать новый торрент и запустить его у себя в клиенте вместо старого, при этом указать клиенту путь в старую папку куда и должно происходить скачивание новых серий. Ваш клиент при этом должен произвести хеширование (проверку) старой папки и будет докачивать только те серии, которых у вас ещё нет. Старые серии при этом не удаляются, а продолжают раздаваться! Eсли вы уже удалили старые серии, то предотвратить повторную закачку старых серий можно, отжав галочку в соответствующих местах при запуске нового торрента.
Релиз от:

Release was prepared by RG Files-x

[Profile] [PM]
Display posts:    
Reply to topic

Current time is: 20-Apr 15:58

All times are UTC + 3



You cannot post new topics in this forum
You cannot reply to topics in this forum
You cannot edit your posts in this forum
You cannot delete your posts in this forum
You cannot vote in polls in this forum
You cannot attach files in this forum
You cannot download files in this forum