Холоп 2 (2023) WEB-DLRip

Reply to topic
 
Author Message

Sherif ®

Gender: Male

Longevity: 5 years 2 months

Posts: 5

Post 12-Mar-2024 15:02

[Quote]

Холоп 2 Год выпуска: 2023
Жанр: Комедия
Выпущено: Россия / Телеканал «Россия 1», Централ Партнершип, MEM Cinema Production, START, Yellow, Black & White
Режиссер: Клим Шипенко
В ролях: Аглая Тарасова, Милош Бикович, Иван Охлобыстин, Александр Самойленко, Мария Миронова, Ольга Дибцева, Наталья Рогожкина, Олег Комаров, Софья Зайка, Сергей Соцердотский
О фильме: Гриша, бывший мажор, побывавший холопом и ставший человеком, после путешествия в «прошлое» чутко реагирует на любую несправедливость. И, конечно, не может пройти мимо беспредела, который творит наглая и избалованная Катя. Ничего удивительного, что вскоре мажорка обнаруживает себя в другом времени.
Качество: WEB-DLRip
Видео: 688x288 (2.39:1), 25 fps, XviD build 73 ~778 kbps avg, 0.16 bit/pixel
Аудио: 48 kHz, MPEG Layer 3, 2 ch, ~128.00 kbps avg
Продолжительность: 01:54:17
Перевод: Не требуется [Русский]
Cубтитры: русские

Скриншоты


MediaInfo

Complete name : C:\Users\Sherif\Desktop\Holop.2.2023.WEB-DLRip. 747 МБ.avi
Format : AVI
Format/Info : Audio Video Interleave
File size : 748 MiB
Duration : 1 h 54 min
Overall bit rate : 916 kb/s
Writing application : VirtualDubMod 1.5.10.3 | www.virtualdub-fr.org || (build 2550/release)
Writing library : VirtualDubMod build 2550/release
Video
ID : 0
Format : MPEG-4 Visual
Format profile : Advanced Simple@L5
Format settings : BVOP1
Format settings, BVOP : 1
Format settings, QPel : No
Format settings, GMC : No warppoints
Format settings, Matrix : Default (MPEG)
Codec ID : XVID
Codec ID/Hint : XviD
Duration : 1 h 54 min
Bit rate : 778 kb/s
Width : 688 pixels
Height : 288 pixels
Display aspect ratio : 2.40:1
Frame rate : 25.000 FPS
Color space : YUV
Chroma subsampling : 4:2:0
Bit depth : 8 bits
Scan type : Progressive
Compression mode : Lossy
Bits/(Pixel*Frame) : 0.157
Stream size : 636 MiB (85%)
Writing library : XviD 73
Audio
ID : 1
Format : MPEG Audio
Format version : Version 1
Format profile : Layer 3
Codec ID : 55
Codec ID/Hint : MP3
Duration : 1 h 54 min
Bit rate mode : Constant
Bit rate : 128 kb/s
Channel(s) : 2 channels
Sampling rate : 48.0 kHz
Frame rate : 41.667 FPS (1152 SPF)
Compression mode : Lossy
Stream size : 105 MiB (14%)
Alignment : Aligned on interleaves
Interleave, duration : 40 ms (1.00 video frame)
Interleave, preload duratio : 504 ms
Writing library : LAME3.99r
Encoding settings : -m s -V 4 -q 2 -lowpass 17 -b 128
Релиз от:
[Profile] [PM]
Display posts:    
Reply to topic

Current time is: 20-Apr 15:36

All times are UTC + 3



You cannot post new topics in this forum
You cannot reply to topics in this forum
You cannot edit your posts in this forum
You cannot delete your posts in this forum
You cannot vote in polls in this forum
You cannot attach files in this forum
You cannot download files in this forum