Шифр [4 сезон: 1-8 серии из 8] (2024) WEB-DLRip-AVC от Files-х

Reply to topic
 
Author Message

Серый1779 ®

Gender: Male

Longevity: 5 years 6 months

Posts: 3591

Location: Украина

Post 31-Mar-2024 17:10

[Quote]

Шифр Год выпуска: 2024
Жанр: Детектив, история
Выпущено: Россия, Кинокомпания "Sony Pictures Television", «Леан-М», Продюсерское объединение «Победа»
Режиссер: Вера Сторожева
В ролях: Марьяна Спивак, Екатерина Вилкова, Елена Панова, Яна Осипова, Сергей Пускепалис, Виталия Корниенко, Сергей Медведев (III), Максим Стоянов, Иван Шибанов, Светлана Колпакова, Сергей Попов, Николай Токарев, Семён Шкаликов, Дарья Мингазетдинова, Ксения Попович, Екатерина Вуличенко, Максим Битюков, Наталья Суркова, Анастасия Великородная, Светлана Тома, Любовь Руднева, Татьяна Яхина, Анна Королёва (II), Марина Хейстонен, Егор Кутенков, Татьяна Полонская, Илья Малаков, Михаил Крылов
О фильме: Подруги, которых связывает военное прошлое, работа в спецотделе ГРУ, продолжают вести расследования и помогать следственным органам в особо запутанных делах. Но на этот раз все гораздо сложнее - Проскурин уволился из МУРа, перевелся в другой город. По просьбе Проскурина при МВД создается специальный аналитический отдел. Туда приглашают девушек. Они становятся частью системы и должны действовать по правилам. Девушки соглашаются, хотя понимают, что конфликта не избежать. Им предстоит отправиться в Кисловодск, где погиб видный партийный работник, его загрызли собственные собаки. В предсмертной записке он обвинил человека, погибшего много лет назад…

Качество: WEB-DLRip-AVC
Видео: MPEG-4 AVC, ~ 1600 Кбит/с, 1024x576, 25 кадр/с
Аудио: AC3, 2 ch, 192 Кбит/с
Продолжительность: 8 х ~ 00:50:57
Перевод: Не требуется
Cубтитры: Русские

Скриншоты



MediaInfo

General
Unique ID : 108604675289383499436911679199139083825 (0x51B47FE75C3AE945DEAA65554CFC3631)
Complete name : F:\Шифр.S04.(2024).WEBRip.(AVC).Files-x\01.Шифр.s04.(2024).WEB-DLRip.(AVC).by.Серый1779.Files-x.mkv
Format : Matroska
Format version : Version 4 / Version 2
File size : 654 MiB
Duration : 50 min 57 s
Overall bit rate : 1 793 kb/s
Movie name : Shifr.S04.E01.2024.WEB-DL.1080p
Encoded date : UTC 2024-04-03 05:45:24
Writing application : mkvmerge v32.0.0 ('Astral Progressions') 64-bit
Writing library : libebml v1.3.7 + libmatroska v1.5.0
Attachments : poster.jpg
Video
ID : 1
Format : AVC
Format/Info : Advanced Video Codec
Format profile : High@L4.1
Format settings : CABAC / 9 Ref Frames
Format settings, CABAC : Yes
Format settings, RefFrames : 9 frames
Codec ID : V_MPEG4/ISO/AVC
Duration : 50 min 57 s
Bit rate : 1 600 kb/s
Width : 1 024 pixels
Height : 576 pixels
Display aspect ratio : 16:9
Frame rate mode : Constant
Frame rate : 25.000 FPS
Color space : YUV
Chroma subsampling : 4:2:0
Bit depth : 8 bits
Scan type : Progressive
Bits/(Pixel*Frame) : 0.109
Stream size : 583 MiB (89%)
Writing library : x264 core 146 r2538 121396c
Encoding settings : cabac=1 / ref=9 / deblock=1:-2:-1 / analyse=0x3:0x133 / me=umh / subme=9 / psy=1 / psy_rd=1.00:0.15 / mixed_ref=1 / me_range=32 / chroma_me=1 / trellis=2 / 8x8dct=1 / cqm=0 / deadzone=21,11 / fast_pskip=0 / chroma_qp_offset=-3 / threads=18 / lookahead_threads=3 / sliced_threads=0 / nr=0 / decimate=1 / interlaced=0 / bluray_compat=0 / constrained_intra=0 / bframes=9 / b_pyramid=2 / b_adapt=2 / b_bias=0 / direct=1 / weightb=1 / open_gop=0 / weightp=2 / keyint=250 / keyint_min=25 / scenecut=40 / intra_refresh=0 / rc=2pass / mbtree=0 / bitrate=1600 / ratetol=1.0 / qcomp=0.60 / qpmin=0 / qpmax=69 / qpstep=4 / cplxblur=20.0 / qblur=0.5 / ip_ratio=1.40 / pb_ratio=1.30 / aq=2:1.00
Default : Yes
Forced : No
Color range : Limited
Color primaries : BT.709
Transfer characteristics : BT.709
Matrix coefficients : BT.709
Audio
ID : 2
Format : AC-3
Format/Info : Audio Coding 3
Format settings, Endianness : Big
Codec ID : A_AC3
Duration : 50 min 57 s
Bit rate mode : Constant
Bit rate : 192 kb/s
Channel(s) : 2 channels
Channel positions : Front: L R
Sampling rate : 48.0 kHz
Frame rate : 31.250 FPS (1536 SPF)
Bit depth : 16 bits
Compression mode : Lossy
Stream size : 70.0 MiB (11%)
Service kind : Complete Main
Default : Yes
Forced : No
Text
ID : 3
Format : UTF-8
Codec ID : S_TEXT/UTF8
Codec ID/Info : UTF-8 Plain Text
Duration : 49 min 48 s
Bit rate : 108 b/s
Count of elements : 865
Stream size : 39.7 KiB (0%)
Title : [SDH]
Language : Russian
Default : No
Forced : No

Раздача ведётся путём добавления новых серий

Внимание! Раздача ведётся путём добавления новых серий; при каждом добавлении создаётся новый торрент.
Чтобы начать докачку новой серии, пользователям необходимо сделать следующее:
1. Остановить скачивание;
2. Удалить старый торрент у себя из клиента (старые серии удалять не надо);
3. Скачать новый торрент и запустить его у себя в клиенте вместо старого, при этом указать клиенту путь в старую папку куда и должно происходить скачивание новых серий. Ваш клиент при этом должен произвести хеширование (проверку) старой папки и будет докачивать только те серии, которых у вас ещё нет. Старые серии при этом не удаляются, а продолжают раздаваться! Eсли вы уже удалили старые серии, то предотвратить повторную закачку старых серий можно, отжав галочку в соответствующих местах при запуске нового торрента.
Релиз от:

Release was prepared by RG Files-x

[Profile] [PM]

Trenzel

Longevity: 5 years 5 months

Posts: 45

Post 05-May-2024 15:46 (after 1 month 4 days)

[Quote]

Серый1779, в 6 серии звук не совпадает с артикуляцией в видео.
Поправьте, пожалуйста.
[Profile] [PM]

Серый1779 ®

Gender: Male

Longevity: 5 years 6 months

Posts: 3591

Location: Украина

Post 05-May-2024 16:29 (after 43 minutes)

[Quote]

Переделана 6-ая серия.
[Profile] [PM]
Display posts:    
Reply to topic

Current time is: 31-May 01:27

All times are UTC + 3



You cannot post new topics in this forum
You cannot reply to topics in this forum
You cannot edit your posts in this forum
You cannot delete your posts in this forum
You cannot vote in polls in this forum
You cannot attach files in this forum
You cannot download files in this forum