Горячая точка [1-2 сезон: 1-48 серии из 48] ( 2019-2021) WEBRip от Files-х

Reply to topic
 
Author Message

bond74 ®

Gender: Male

Longevity: 5 years 5 months

Posts: 2364

Post 31-Mar-2024 23:56

[Quote]

Горячая точка Год выхода: 2019-2021
Жанр: Боевик
Выпущено: Россия, Кинокомпания ООО «УдачаXXI»
Режиссер: Денис Карро
В ролях: Арсений Робак, Елена Лотова, Назир Жуков, Павел Попов, Пётр Баранчеев, Сергей Борисов, Дмитрий Янышевский, Александр Тараньжин, Виктор Немец, Иван Моховиков, Дмитрий Архангельский, Сергей Мурзин, Андрей Аверьянов, Ирина Савицкова, Ирина Лукина, Торнике Квитатиани, Виктор Конухин, Маргарита Иванова-Донская, Татьяна Чердынцева, Галина Анисимова (II), Наби Ахмедов, Дарья Фролова, Александр Лырчиков, Михаил Слесарев, Сергей Шарифуллин, Юрий Архангельский, Юрий Скулябин, Кирилл Букин, Олег Кныш, Алексей Лысенко (II)
О сериале: После событий первого сезона, когда Женя, пытавшийся остановить от побега Таранова и Контрабаса, становится мишенью для людей бандита, мстившего за смерть своего начальника, проходит некоторое время. Отсидев в тюрьме, он возвращается в родное Чернодолье. На первый взгляд здесь всё изменилось: бандитский беспредел остался в прошлом, да и при новом начальнике милиции тишь да гладь. Но это оказывается иллюзией, когда Мурин со своим другом, оперуполномоченным Эдиком Хасановым, вновь оказываются в центре войны – теперь между столичным криминальным кланом и коррумпированной милицией: они борются за землю посёлка, выделенную под открытие новой игровой зоны.

Качество: WEBRip
Видео: XviD, ~ 1589 Кбит/с, 720x400, 25 кадр/с
Аудио: AC3, 2 ch, 192 Кбит/с
Продолжительность: 48 x ~ 00:50:00
Перевод: Не требуется
Субтитры: Русские

Скриншоты



MediaInfo

General
Complete name : C:\films\Горячая точка.s01. 2019-2021 .WEB-DLRip.Files-x\S01\24. Горячая точка.s01. 2019 .WEB-DLRip.Files-x.avi
Format : AVI
Format/Info : Audio Video Interleave
Format settings : BitmapInfoHeader / WaveFormatEx
File size : 653 MiB
Duration : 50 min 59 s
Overall bit rate : 1 790 kb/s
Frame rate : 25.000 FPS
Writing application : VirtualDubMod 1.5.10.3 | www.virtualdub-fr.org || (build 2550/release)
Writing library : VirtualDubMod build 2550/release
Video
ID : 0
Format : MPEG-4 Visual
Format profile : Advanced Simple@L5
Format settings : BVOP1 / Custom Matrix
Format settings, BVOP : 1
Format settings, QPel : No
Format settings, GMC : No warppoints
Format settings, Matrix : Custom
Codec ID : XVID
Codec ID/Hint : XviD
Duration : 50 min 59 s
Bit rate : 1 588 kb/s
Width : 720 pixels
Height : 400 pixels
Display aspect ratio : 16:9
Frame rate : 25.000 FPS
Color space : YUV
Chroma subsampling : 4:2:0
Bit depth : 8 bits
Scan type : Progressive
Compression mode : Lossy
Bits/(Pixel*Frame) : 0.221
Stream size : 579 MiB (89%)
Writing library : XviD 73
Audio
ID : 1
Format : AC-3
Format/Info : Audio Coding 3
Commercial name : Dolby Digital
Codec ID : 2000
Duration : 50 min 59 s
Bit rate mode : Constant
Bit rate : 192 kb/s
Channel(s) : 2 channels
Channel layout : L R
Sampling rate : 48.0 kHz
Frame rate : 31.250 FPS (1536 SPF)
Compression mode : Lossy
Stream size : 70.0 MiB (11%)
Alignment : Split across interleaves
Interleave, duration : 40 ms (1.00 video frame)
Interleave, preload duration : 500 ms
Service kind : Complete Main

Внимание! Раздача ведётся путём добавления новых серий

Раздача ведётся путём добавления новых серий, при каждом добавлении создаётся новый торрент. Чтобы начать докачку новой серии, пользователям необходимо сделать следующее:
- Остановить скачивание.
- Удалить старый торрент у себя из клиента (старые серии удалять не надо).
- Скачать новый торрент и запустить его у себя в клиенте вместо старого, при этом указать клиенту путь в старую папку куда и должно происходить скачивание новых серий.
Ваш клиент при этом должен произвести хеширование (проверку) старой папки (если не производит сам - помогите ему сделать это), и будет докачивать только те серии которых у вас ещё нет. Старые серии при этом не удаляются, а продолжают раздаваться!
Релиз от:

Release was prepared by RG Files-x

[Profile] [PM]
Display posts:    
Reply to topic

Current time is: 20-Apr 15:46

All times are UTC + 3



You cannot post new topics in this forum
You cannot reply to topics in this forum
You cannot edit your posts in this forum
You cannot delete your posts in this forum
You cannot vote in polls in this forum
You cannot attach files in this forum
You cannot download files in this forum