Тень Чикатило [3 сезон: 1-8 серия из 8] (2024) WEBRip-AVC от Files-х

Reply to topic
 
Author Message

Серый1779 ®

Gender: Male

Longevity: 5 years 7 months

Posts: 3603

Location: Украина

Post 04-Apr-2024 13:33

[Quote]

Тень Чикатило Год выпуска: 2024
Жанр: Триллер, детектив, драма
Выпущено: Россия, Кинокомпания «Студия К.Б.А.»
Режиссер: Сарик Андреасян, Давид Дадунашвили
В ролях: Дмитрий Нагиев, Константин Лавроненко, Дмитрий Власкин, Юлия Афанасьева, Олег Каменщиков, Николай Козак, Евгений Шириков, Иван Федотов, Карен Бадалов
О фильме: Из-за присущей ему хитрости, изворотливости и доступа к милицейским архивам и базам данных Попцову удается в течение многих лет избегать наказания, наводя ужас на всю Иркутскую область. Он постепенно превращается в полумистического персонажа, неуловимого демона, от которого нет спасения. И все же оперативники во главе с Ковалевым, пройдя через череду сложных жизненных ситуаций, выйдут на след убийцы, остановив страшный конвейер смерти.

Качество: WEBRip-AVC
Видео: MPEG-4 AVC, ~ 1600 Кбит/с, 1024x432, 25 кадр/с
Аудио №1: AC3, 6 ch, 384 Кбит/с | (с цензурой)
Аудио №2: AC3, 6 ch, 384 Кбит/с | (без цензуры, 18+) Присутствует ненормативная лексика
Продолжительность: 8 х ~ 00:55:48
Перевод: Не требуется
Cубтитры: Русские

Скриншоты



MediaInfo

General
Unique ID : 318612736424967655274166792443665748030 (0xEFB294BABD0119152DAD70212F52903E)
Complete name : F:\Чикатило.S03.(2022).WEBRip.(AVC).Files-x\01.Чикатило (Тень Чикатило).S03.(2024).WEBRip.(AVC).by.Серый1779.Files-x.mkv
Format : Matroska
Format version : Version 4 / Version 2
File size : 946 MiB
Duration : 55 min 48 s
Overall bit rate : 2 370 kb/s
Encoded date : UTC 2024-04-04 09:27:15
Writing application : mkvmerge v32.0.0 ('Astral Progressions') 64-bit
Writing library : libebml v1.3.7 + libmatroska v1.5.0
Video
ID : 1
Format : AVC
Format/Info : Advanced Video Codec
Format profile : High@L4.1
Format settings : CABAC / 9 Ref Frames
Format settings, CABAC : Yes
Format settings, RefFrames : 9 frames
Codec ID : V_MPEG4/ISO/AVC
Duration : 55 min 48 s
Bit rate : 1 600 kb/s
Width : 1 024 pixels
Height : 432 pixels
Display aspect ratio : 2.40:1
Frame rate mode : Constant
Frame rate : 25.000 FPS
Color space : YUV
Chroma subsampling : 4:2:0
Bit depth : 8 bits
Scan type : Progressive
Bits/(Pixel*Frame) : 0.145
Stream size : 639 MiB (68%)
Writing library : x264 core 146 r2538 121396c
Encoding settings : cabac=1 / ref=9 / deblock=1:-2:-1 / analyse=0x3:0x133 / me=umh / subme=9 / psy=1 / psy_rd=1.00:0.15 / mixed_ref=1 / me_range=32 / chroma_me=1 / trellis=2 / 8x8dct=1 / cqm=0 / deadzone=21,11 / fast_pskip=0 / chroma_qp_offset=-3 / threads=18 / lookahead_threads=3 / sliced_threads=0 / nr=0 / decimate=1 / interlaced=0 / bluray_compat=0 / constrained_intra=0 / bframes=9 / b_pyramid=2 / b_adapt=2 / b_bias=0 / direct=1 / weightb=1 / open_gop=0 / weightp=2 / keyint=250 / keyint_min=25 / scenecut=40 / intra_refresh=0 / rc=2pass / mbtree=0 / bitrate=1600 / ratetol=1.0 / qcomp=0.60 / qpmin=0 / qpmax=69 / qpstep=4 / cplxblur=20.0 / qblur=0.5 / ip_ratio=1.40 / pb_ratio=1.30 / aq=2:1.00
Default : Yes
Forced : No
Color range : Limited
Color primaries : BT.709
Transfer characteristics : BT.709
Matrix coefficients : BT.709
Audio #1
ID : 2
Format : AC-3
Format/Info : Audio Coding 3
Format settings, Endianness : Big
Codec ID : A_AC3
Duration : 55 min 48 s
Bit rate mode : Constant
Bit rate : 384 kb/s
Channel(s) : 6 channels
Channel positions : Front: L C R, Side: L R, LFE
Sampling rate : 48.0 kHz
Frame rate : 31.250 FPS (1536 SPF)
Bit depth : 16 bits
Compression mode : Lossy
Stream size : 153 MiB (16%)
Service kind : Complete Main
Default : Yes
Forced : No
Audio #2
ID : 3
Format : AC-3
Format/Info : Audio Coding 3
Format settings, Endianness : Big
Codec ID : A_AC3
Duration : 55 min 48 s
Bit rate mode : Constant
Bit rate : 384 kb/s
Channel(s) : 6 channels
Channel positions : Front: L C R, Side: L R, LFE
Sampling rate : 48.0 kHz
Frame rate : 31.250 FPS (1536 SPF)
Bit depth : 16 bits
Compression mode : Lossy
Stream size : 153 MiB (16%)
Service kind : Complete Main
Default : No
Forced : No

Раздача ведётся путём добавления новых серий

Внимание! Раздача ведётся путём добавления новых серий; при каждом добавлении создаётся новый торрент.
Чтобы начать докачку новой серии, пользователям необходимо сделать следующее:
1. Остановить скачивание;
2. Удалить старый торрент у себя из клиента (старые серии удалять не надо);
3. Скачать новый торрент и запустить его у себя в клиенте вместо старого, при этом указать клиенту путь в старую папку куда и должно происходить скачивание новых серий. Ваш клиент при этом должен произвести хеширование (проверку) старой папки и будет докачивать только те серии, которых у вас ещё нет. Старые серии при этом не удаляются, а продолжают раздаваться! Eсли вы уже удалили старые серии, то предотвратить повторную закачку старых серий можно, отжав галочку в соответствующих местах при запуске нового торрента.
Релиз от:

Release was prepared by RG Files-x

[Profile] [PM]

Trenzel

Longevity: 5 years 6 months

Posts: 46

Post 26-Apr-2024 11:26 (after 21 day)

[Quote]

Серый1779, субтитры в 3 и 4 серии планируете добавить?
[Profile] [PM]

Серый1779 ®

Gender: Male

Longevity: 5 years 7 months

Posts: 3603

Location: Украина

Post 02-May-2024 14:13 (after 6 days)

[Quote]

+5 серия
ОККО опять накосячила, дорожки есть обе и простая и 18+, но 2.0, исправлю как исправят, если исправят
Добавлены субтитры в 3-ю и 4-ю серии
[Profile] [PM]

Серый1779 ®

Gender: Male

Longevity: 5 years 7 months

Posts: 3603

Location: Украина

Post 09-May-2024 17:32 (after 7 days)

[Quote]

5-ая серия с нормальным 6-ти канальным звуком.
[Profile] [PM]

wintersilver

Gender: Male

Longevity: 5 years 4 months

Posts: 2

Post 23-May-2024 18:21 (after 14 days)

[Quote]

1600 Кбит/с качество не приемлю. Только от 9000 Кбит/с и выше.
[Profile] [PM]

Серый1779 ®

Gender: Male

Longevity: 5 years 7 months

Posts: 3603

Location: Украина

Post 25-May-2024 13:58 (after 1 day 19 hours)

[Quote]

Субтитры добавлены во все серии.
[Profile] [PM]
Display posts:    
Reply to topic

Current time is: 17-Jun 18:54

All times are UTC + 3



You cannot post new topics in this forum
You cannot reply to topics in this forum
You cannot edit your posts in this forum
You cannot delete your posts in this forum
You cannot vote in polls in this forum
You cannot attach files in this forum
You cannot download files in this forum