Обоюдное согласие [2 сезон: 1-6 серии из 6] (2024) WEBRip-AVC от Files-х

Reply to topic
 
Author Message

bond74 ®

Gender: Male

Longevity: 5 years 6 months

Posts: 2403

Post 05-Apr-2024 16:28

[Quote]

Обоюдное согласие
Год выпуска: 2024
Жанр: Драма
Выпущено: Россия, Кинокомпания "Медиаслово", "МТС Медиа"
Режиссер: Валерия Гай Германика
В ролях: Глафира Тарханова, Диана Арбенина, Максим Ползиков, Елена Ханга, Глеб Пускепалис, Артём Анашкин, Иван Габриэль Гаврилов, Владимир Пирожок, Илана Исакжанова, Мария Кончаловская, Валентина Нейморовец, Марина Семяновская, Виталий Алексеев
О фильме: Убит успешный предприниматель и многодетный отец Григорий Венишев. Подозрение моментально падает на его жену Марину: все указывает на то, что именно она воткнула нож в мужа. В процессе расследования выясняется, что за идеальным фасадом семьи Венишевых много лет скрывался абьюз — и что покойный Григорий был настоящим чудовищем. Но кто на самом деле его убил? Разбираться в деле будет следователь Анна и правозащитница Ида.

Качество: WEBRip-AVC
Видео: MPEG-4 AVC, ~ 1600 Кбит/с, 720x400, 25 кадр/с
Аудио: AC3, 2 ch, 192 Кбит/с
Продолжительность:3 x ~ 00:36:02
Перевод: Не требуется
Субтитры: Нет

Скриншоты




MediaInfo

GGeneral
Unique ID : 209808191414180780879471466970300443174 (0x9DD7967CD410F0A8A474F56E5BF26A26)
Complete name : C:\films\Обоюдное согласие.s02.2024.WEB-DLRip.Files-x\02. Обоюдное согласие.s02.2024.WEB-DLRip.Files-x.mkv
Format : Matroska
Format version : Version 2
File size : 459 MiB
Duration : 35 min 45 s
Overall bit rate : 1 794 kb/s
Frame rate : 25.000 FPS
Encoded date : 2024-04-05 10:20:33 UTC
Writing application : mkvmerge v7.8.0 ('River Man') 32bit built on Apr 3 2015 12:11:22
Writing library : libebml v1.3.1 + libmatroska v1.4.2
Video
ID : 1
Format : AVC
Format/Info : Advanced Video Codec
Format profile : High@L4.1
Format settings : CABAC / 9 Ref Frames
Format settings, CABAC : Yes
Format settings, Reference frames : 9 frames
Codec ID : V_MPEG4/ISO/AVC
Duration : 35 min 45 s
Bit rate : 1 600 kb/s
Width : 720 pixels
Height : 400 pixels
Display aspect ratio : 16:9
Frame rate mode : Constant
Frame rate : 25.000 FPS
Color space : YUV
Chroma subsampling : 4:2:0
Bit depth : 8 bits
Scan type : Progressive
Bits/(Pixel*Frame) : 0.222
Stream size : 401 MiB (87%)
Writing library : x264 core 146 r2538 121396c
Encoding settings : cabac=1 / ref=9 / deblock=1:-2:-1 / analyse=0x3:0x133 / me=umh / subme=9 / psy=1 / psy_rd=1.00:0.15 / mixed_ref=1 / me_range=32 / chroma_me=1 / trellis=2 / 8x8dct=1 / cqm=0 / deadzone=21,11 / fast_pskip=0 / chroma_qp_offset=-3 / threads=18 / lookahead_threads=3 / sliced_threads=0 / nr=0 / decimate=1 / interlaced=0 / bluray_compat=0 / constrained_intra=0 / bframes=9 / b_pyramid=2 / b_adapt=2 / b_bias=0 / direct=1 / weightb=1 / open_gop=0 / weightp=2 / keyint=250 / keyint_min=25 / scenecut=40 / intra_refresh=0 / rc=2pass / mbtree=0 / bitrate=1600 / ratetol=1.0 / qcomp=0.60 / qpmin=0 / qpmax=69 / qpstep=4 / cplxblur=20.0 / qblur=0.5 / ip_ratio=1.40 / pb_ratio=1.30 / aq=2:1.00
Default : Yes
Forced : No
Color range : Limited
Color primaries : BT.709
Transfer characteristics : BT.709
Matrix coefficients : BT.709
Audio
ID : 2
Format : AC-3
Format/Info : Audio Coding 3
Commercial name : Dolby Digital
Codec ID : A_AC3
Duration : 35 min 45 s
Bit rate mode : Constant
Bit rate : 192 kb/s
Channel(s) : 2 channels
Channel layout : L R
Sampling rate : 48.0 kHz
Frame rate : 31.250 FPS (1536 SPF)
Compression mode : Lossy
Stream size : 49.1 MiB (11%)
Service kind : Complete Main
Default : Yes
Forced : No

Внимание! Раздача ведётся путём добавления новых серий

Раздача ведётся путём добавления новых серий, при каждом добавлении создаётся новый торрент. Чтобы начать докачку новой серии, пользователям необходимо сделать следующее:
- Остановить скачивание.
- Удалить старый торрент у себя из клиента (старые серии удалять не надо).
- Скачать новый торрент и запустить его у себя в клиенте вместо старого, при этом указать клиенту путь в старую папку куда и должно происходить скачивание новых серий.
Ваш клиент при этом должен произвести хеширование (проверку) старой папки (если не производит сам - помогите ему сделать это), и будет докачивать только те серии которых у вас ещё нет. Старые серии при этом не удаляются, а продолжают раздаваться!
Релиз от:

Release was prepared by RG Files-x

[Profile] [PM]
Display posts:    
Reply to topic

Current time is: 31-May 00:51

All times are UTC + 3



You cannot post new topics in this forum
You cannot reply to topics in this forum
You cannot edit your posts in this forum
You cannot delete your posts in this forum
You cannot vote in polls in this forum
You cannot attach files in this forum
You cannot download files in this forum