Универ. 13 лет спустя [1-12 серия из 12] (2018) WEBRip 720p от Files-x

Reply to topic
 
Author Message

bond74 ®

Gender: Male

Longevity: 5 years 7 months

Posts: 2416

Post 14-May-2024 05:30

[Quote]

Универ. 13 лет спустя
Год выпуска: 2024
Жанр: Комедия, мелодрама, семейный
Выпущено: Россия, Кинокомпания "Comedy Club Production"
Режиссер: Семен Литовчин
В ролях: Виталий Гогунский, Арарат Кещян, Станислав Ярушин, Анна Хилькевич, Александр Мартынов (IV), Екатерина Молоховская, Таисия Котова, Мария Лобанова, Мария Чернолихова, Полина Ростова, Елена Полянская, Сергей Пиоро, Ольга Шеховцова, Денис Бузин, Константин Крюков
О фильме: Спустя три года после воссоединения героев их жизнь снова сильно поменялась. Кристина с ребенком уехала в Израиль, а у Антона появилась взрослая дочь, о существовании которой он не знал. Измена Майкла дала трещину в отношениях с Варей, и они разводятся. Валя и Маша испытывают финансовые трудности, поэтому Валя пропадает на работе, а Маша занимается детьми. Тем временем Кузя возвращается в Москву расширять бизнес, но на самом деле у него есть и другие причины.

Качество: WEBRip 720p
Видео: MPEG-4 AVC, ~ 3000 Кбит/с, 1280x720, 25 кадр/с
Аудио: AC3, 2 ch, 192 Кбит/с
Продолжительность: 1 х ~ 00:45:59
Перевод: Не требуется
Субтитры: Нет

MediaInfo

General
Complete name : D:\films\Универ. 13 лет спустя.2024. WEB-DLRip.Files-x\01. Универ. 13 лет спустя.2024. WEB-DLRip.Files-x.avi
Format : AVI
Format/Info : Audio Video Interleave
Format settings : BitmapInfoHeader / WaveFormatEx
File size : 588 MiB
Duration : 45 min 59 s
Overall bit rate : 1 787 kb/s
Frame rate : 25.000 FPS
Writing application : VirtualDubMod 1.5.10.3 | www.virtualdub-fr.org || (build 2550/release)
Writing library : VirtualDubMod build 2550/release
Video
ID : 0
Format : MPEG-4 Visual
Format profile : Advanced Simple@L5
Format settings : BVOP1 / Custom Matrix
Format settings, BVOP : 1
Format settings, QPel : No
Format settings, GMC : No warppoints
Format settings, Matrix : Custom
Codec ID : XVID
Codec ID/Hint : XviD
Duration : 45 min 59 s
Bit rate : 1 585 kb/s
Width : 720 pixels
Height : 400 pixels
Display aspect ratio : 16:9
Frame rate : 25.000 FPS
Color space : YUV
Chroma subsampling : 4:2:0
Bit depth : 8 bits
Scan type : Progressive
Compression mode : Lossy
Bits/(Pixel*Frame) : 0.220
Stream size : 521 MiB (89%)
Writing library : XviD 73
Audio
ID : 1
Format : AC-3
Format/Info : Audio Coding 3
Commercial name : Dolby Digital
Codec ID : 2000
Duration : 45 min 59 s
Bit rate mode : Constant
Bit rate : 192 kb/s
Channel(s) : 2 channels
Channel layout : L R
Sampling rate : 48.0 kHz
Frame rate : 31.250 FPS (1536 SPF)
Compression mode : Lossy
Stream size : 63.2 MiB (11%)
Alignment : Split across interleaves
Interleave, duration : 40 ms (1.00 video frame)
Interleave, preload duration : 500 ms
Service kind : Complete Main

Раздача ведётся путём добавления новых серий

Внимание! Раздача ведётся путём добавления новых серий; при каждом добавлении создаётся новый торрент.
Чтобы начать докачку новой серии, пользователям необходимо сделать следующее:
1. Остановить скачивание;
2. Удалить старый торрент у себя из клиента (старые серии удалять не надо);
3. Скачать новый торрент и запустить его у себя в клиенте вместо старого, при этом указать клиенту путь в старую папку куда и должно происходить скачивание новых серий. Ваш клиент при этом должен произвести хеширование (проверку) старой папки и будет докачивать только те серии, которых у вас ещё нет. Старые серии при этом не удаляются, а продолжают раздаваться! Eсли вы уже удалили старые серии, то предотвратить повторную закачку старых серий можно, отжав галочку в соответствующих местах при запуске нового торрента.

Скриншоты



Релиз от:

Release was prepared by RG Files-x

[Profile] [PM]
Display posts:    
Reply to topic

Current time is: 17-Jun 20:19

All times are UTC + 3



You cannot post new topics in this forum
You cannot reply to topics in this forum
You cannot edit your posts in this forum
You cannot delete your posts in this forum
You cannot vote in polls in this forum
You cannot attach files in this forum
You cannot download files in this forum