Поймай меня, если сможешь [1 сезон: 1-5 выпуск] (2024) WEBRip 720p от Files-x

Reply to topic
 
Author Message

bond74 ®

Gender: Male

Longevity: 5 years 7 months

Posts: 2421

Post 24-May-2024 23:18

[Quote]

Поймай меня, если сможешь Год выпуска: 2024
Жанр:ТВ-шоу, юмор, развлекательный
Выпущено: Россия, студия «Гуд Тим Продакшн» по заказу телеканала «Россия»
В ролях:Владимир Маркони
О фильме:Музыкальное шоу, в котором звезды пытаются найти того самого среди зрителей и заполучить миллион. Российским селебрити и телезрителям предстоит встретиться на одной музыкальной площадке и разыграть миллион рублей. По правилам гранд-шоу знаменитости пытаются раскусить незвездных гостей студи и «поймать» того самого участника, который выдаёт себе совсем за другого человека. Им предстоит трижды найти правильный ответ на задание ведущего, чтобы стать триумфаторами. Иначе деньги отправятся противникам. Кого именно будут искать игроки, пока держится в секрете. Создали программы пытаются сохранить интригу до последнего. К тому же они обещают, что подготовили для команды знаменитостей не мало ловушек, чтобы максимально усложнить их путь к победе. Игроков и зрителей ждут не только жаркие споры, открытия и непростые задачи, но и яркие номера, любимые миллионами хиты и фирменные шутки от ведущего.
Качество: WEBRip 720
Видео: MPEG-4 AVC, ~ 1900 Кбит/с, 1280x720, 25 кадр/с
Аудио: AC3, 2 ch, 192 Кбит/с
Продолжительность:1 x ~ 01:40:00
Перевод: Не требуется [Русский]
Cубтитры: Нет

Скриншоты




MediaInfo

Общее
Уникальный идентификатор : 222892625351256871636109613693696442052 (0xA7AF8EE33A152A15AB6C5060821B7EC4)
Полное имя : C:\films\Поймай меня, если сможешь.2024.WEB-DL 720p.Files-x\01. Поймай меня, если сможешь.2024.WEB-DL 720p.Files-x.mkv
Формат : Matroska
Версия формата : Version 2
Размер файла : 1,42 Гбайт
Продолжительность : 1 ч. 39 м.
Режим общего битрейта : Переменный
Общий поток : 2 052 Кбит/сек
Частота кадров : 25,000 кадров/сек
Дата кодирования : 2024-05-24 19:51:25 UTC
Программа кодирования : mkvmerge v7.8.0 ('River Man') 32bit built on Apr 3 2015 12:11:22
Библиотека кодирования : libebml v1.3.1 + libmatroska v1.4.2
Видео
Идентификатор : 1
Формат : AVC
Формат/Информация : Advanced Video Codec
Профиль формата : High@L3.1
Настройки формата : CABAC / 2 Ref Frames
Параметр CABAC формата : Да
Параметр RefFrames формата : 2 кадра
Идентификатор кодека : V_MPEG4/ISO/AVC
Продолжительность : 1 ч. 39 м.
Вид битрейта : Переменный
Битрейт : 1 819 Кбит/сек
Максимальный битрейт : 2 400 Кбит/сек
Ширина : 1 280 пикселей
Высота : 720 пикселей
Соотношение сторон : 16:9
Режим частоты кадров : Постоянный
Частота кадров : 25,000 кадров/сек
Цветовое пространство : YUV
Субдискретизация насыщенности : 4:2:0
Битовая глубина : 8 бит
Тип развёртки : Прогрессивная
Бит/(Пиксели*Кадры) : 0.079
Размер потока : 1,26 Гбайт (89%)
Default : Да
Forced : Нет
Аудио
Идентификатор : 2
Формат : AC-3
Формат/Информация : Audio Coding 3
Коммерческое название : Dolby Digital
Идентификатор кодека : A_AC3
Продолжительность : 1 ч. 39 м.
Вид битрейта : Постоянный
Битрейт : 192 Кбит/сек
Каналы : 2 канала
Channel layout : L R
Частота : 48,0 КГц
Частота кадров : 31,250 кадров/сек (1536 SPF)
Метод сжатия : С потерями
Задержка видео : -40 мс.
Размер потока : 137 Мбайт (9%)
Service kind : Complete Main
Default : Да
Forced : Нет

Внимание! Раздача ведётся путём добавления новых серий

Раздача ведётся путём добавления новых серий, при каждом добавлении создаётся новый торрент. Чтобы начать докачку новой серии, пользователям необходимо сделать следующее:
- Остановить скачивание.
- Удалить старый торрент у себя из клиента (старые серии удалять не надо).
- Скачать новый торрент и запустить его у себя в клиенте вместо старого, при этом указать клиенту путь в старую папку куда и должно происходить скачивание новых серий.
Ваш клиент при этом должен произвести хеширование (проверку) старой папки (если не производит сам - помогите ему сделать это), и будет докачивать только те серии которых у вас ещё нет. Старые серии при этом не удаляются, а продолжают раздаваться!
Релиз от:

Release was prepared by RG Files-x

[Profile] [PM]
Display posts:    
Reply to topic

Current time is: 24-Jun 22:32

All times are UTC + 3



You cannot post new topics in this forum
You cannot reply to topics in this forum
You cannot edit your posts in this forum
You cannot delete your posts in this forum
You cannot vote in polls in this forum
You cannot attach files in this forum
You cannot download files in this forum