Дельфин [2 сезон: 1-24 серии из 24] (2023-2024) WEB-DLRip от Files-x

Reply to topic
 
Author Message

bond74 ®

Gender: Male

Longevity: 5 years 7 months

Posts: 2416

Post 29-May-2024 12:12

[Quote]

Дельфин
Год выпуска: 2023-2024
Жанр: Детектив, криминал
Выпущено: Россия, Кинокомпания "Гамма продакшн"
Режиссер: Сергей Артимович, Александр Калугин
В ролях: Сергей Жарков, Сергей Колос, Дарья Румянцева, Маргарита Бычкова, Алесь Снопковский, Игорь Ботвин, Алексей Штукин, Алексей Байдаков, Елизавета Пащенко, Андрей Полищук, Александр Большаков, Александр Черкашин, Глафира Козулина, Серафима Селиванова, Андрей Конев, Антонис Шаманиди, Анна Королева (II), Татьяна Косач-Брындина, Юрий Уткин, Инна Ярмошук, Николай Сердцев, Андрей Аверков, Алексей Шаблюк, Евгений Карпов, Евгений Кузьмин, Сергей Бледных, Кирилл Полухин, Валентина Ведерникова, Валерий Малюшин, Линда Лазарева, Сергей Мардарь, Виталий Такс, Сергей Стукалов, Шамиль Мухамедов, Марк Гаврилов
О сериале: В новом сезоне проекта «Дельфин», обнаружив попытку покушения на Кораблёва, оперативники Южноморска проводят спецоперацию прикрытия, в ходе которой, для того чтобы выйти на преступников, Кораблева якобы убивают и устраивают ему пышные похороны. Появляется в новом сезоне и новый злодей, криминальный авторитет Лука, скрывающийся под именем бывшего заключенного Захара Пескарёва, который решил захватить рынок недвижимости городка, до того, как на его территории будет воздвигнута особая игорная зона, и недвижимость взлетит в цене.
Качество: WEB-DLRip
Видео: XviD, ~ 1600 Кбит/с, 720x400, 25 кадр/с
Аудио: AC3, 2 ch, 192 Кбит/с
Продолжительность: 24 x ~ 00:48:20
Перевод: Не требуется
Субтитры: Русские

Скриншоты




MediaInfo

Общее
Полное имя : D:\films\Дельфин .S02.2024.WEB-DLRip.Files-x\09. Дельфин .S02.2024.WEB-DLRip.Files-x.avi
Формат : AVI
Формат/Информация : Audio Video Interleave
Настройки формата : BitmapInfoHeader / WaveFormatEx
Размер файла : 614 Мбайт
Продолжительность : 47 м. 57 с.
Общий поток : 1 789 Кбит/сек
Частота кадров : 25,000 кадров/сек
Программа кодирования : VirtualDubMod 1.5.10.3 | www.virtualdub-fr.org || (build 2550/release)
Библиотека кодирования : VirtualDubMod build 2550/release
Видео
Идентификатор : 0
Формат : MPEG-4 Visual
Профиль формата : Advanced Simple@L5
Настройки формата : BVOP1 / Custom Matrix
Параметр BVOP формата : 1
Параметр QPel формата : Нет
Параметр GMC формата : Без точки перехода
Параметр матрицы формата : Выборочная
Идентификатор кодека : XVID
Идентификатор кодека/Подсказка : XviD
Продолжительность : 47 м. 57 с.
Битрейт : 1 587 Кбит/сек
Ширина : 720 пикселей
Высота : 400 пикселей
Соотношение сторон : 16:9
Частота кадров : 25,000 кадров/сек
Цветовое пространство : YUV
Субдискретизация насыщенности : 4:2:0
Битовая глубина : 8 бит
Тип развёртки : Прогрессивная
Метод сжатия : С потерями
Бит/(Пиксели*Кадры) : 0.220
Размер потока : 544 Мбайт (89%)
Библиотека кодирования : XviD 73
Аудио
Идентификатор : 1
Формат : AC-3
Формат/Информация : Audio Coding 3
Коммерческое название : Dolby Digital
Идентификатор кодека : 2000
Продолжительность : 47 м. 57 с.
Вид битрейта : Постоянный
Битрейт : 192 Кбит/сек
Каналы : 2 канала
Channel layout : L R
Частота : 48,0 КГц
Частота кадров : 31,250 кадров/сек (1536 SPF)
Метод сжатия : С потерями
Размер потока : 65,8 Мбайт (11%)
Выравнивание : Разделение по промежуткам
Продолжительность промежутка : 40 мс. (1,00 видеокадр)
Время предзагрузки промежутка : 500 мс.
Service kind : Complete Main

Раздача ведётся путём добавления новых серий

Внимание! Раздача ведётся путём добавления новых серий; при каждом добавлении создаётся новый торрент.
Чтобы начать докачку новой серии, пользователям необходимо сделать следующее:
1. Остановить скачивание;
2. Удалить старый торрент у себя из клиента (старые серии удалять не надо);
3. Скачать новый торрент и запустить его у себя в клиенте вместо старого, при этом указать клиенту путь в старую папку куда и должно происходить скачивание новых серий. Ваш клиент при этом должен произвести хеширование (проверку) старой папки и будет докачивать только те серии, которых у вас ещё нет. Старые серии при этом не удаляются, а продолжают раздаваться! Eсли вы уже удалили старые серии, то предотвратить повторную закачку старых серий можно, отжав галочку в соответствующих местах при запуске нового торрента.
Релиз от:

Release was prepared by RG Files-x

[Profile] [PM]
Display posts:    
Reply to topic

Current time is: 17-Jun 20:53

All times are UTC + 3



You cannot post new topics in this forum
You cannot reply to topics in this forum
You cannot edit your posts in this forum
You cannot delete your posts in this forum
You cannot vote in polls in this forum
You cannot attach files in this forum
You cannot download files in this forum