Джон Уик: Квадрология / John Wick: Quadrology (2014 - 2023) BDRip 1080p | Пифагор | iTunes

Reply to topic
 
Author Message

HardwareMining ®

Gender: Male

Longevity: 4 years 8 months

Posts: 626

Post 06-Jun-2024 14:07

[Quote]


Джон Уик: Квадрология / John Wick: Quadrology

Джон Уик / John Wick - 2014

Джон Уик / John Wick
«Его лучше не трогать»
Год выпуска: 2014
Жанр: боевик, триллер, криминал
Выпущено: США, Китай | 87Eleven, Company Films, Cutting Edge Group, DefyNite Films, Huayi Brothers Media, MJW Films, Poquito Productions, Summit Entertainment, Thunder Road
Режиссеры: Чад Стахелски, Дэвид Литч
В ролях: Киану Ривз, Микаэл Нюквист, Алфи Аллен, Уиллем Дефо, Дин Уинтерс, Эдрианн Палики, Омер Барнеа, Тоби Леонард Мур, Дэниэл Бернхард, Бриджет Мойнэхэн
О фильме:
Джон Уик - на первый взгляд, самый обычный среднестатистический американец, который ведет спокойную мирную жизнь. Однако мало кто знает, что он был наёмным убийцей, причём одним из лучших профессионалов в своём деле.
После того как сынок главы бандитской группы со своими приятелями угоняет его любимый «Мустанг» 1969 года выпуска, при этом убив его собаку Дейзи, которая была подарком недавно почившей супруги, Джон вынужден вернуться к своему прошлому. Теперь Уик начинает охоту за теми, кто имел неосторожность перейти ему дорогу, и он готов на всё, чтобы отомстить.

Качество: BDRip 1080p
Видео: AVC, 1920x800 (2.40:1), 23,976 fps, 7400 Kbit/s (0.201 bit/pixel)
Аудио: русский, AC3, 5.1, 48 kHz, 384 kbps CBR
Продолжительность: 01:41:10
Перевод: Дублированный | Пифагор
Субтитры: Отсутствуют

Скриншоты

MediaInfo

General
Unique ID : 219462312270277477979702289721122356497 (0xA51AE7651C5FF746A6B2D516A573FD11)
Complete name : F:\Torrent\GF\John Wick Quadrology\John.Wick.2014.BDRip.1080p.Rip.by.HardwareMining.R.G.Generalfilm.mkv
Format : Matroska
Format version : Version 4
File size : 5.50 GiB
Duration : 1 h 41 min
Overall bit rate : 7 777 kb/s
Frame rate : 23.976 FPS
Movie name : John.Wick.2014.BDRip.1080p.Rip.by.HardwareMining.R.G.Generalfilm
Encoded date : 2024-05-25 16:35:45 UTC
Writing application : mkvmerge v6.8.0 ('Theme for Great Cities') 32bit built on Mar 2 2014 21:27:07
Writing library : libebml v1.3.0 + libmatroska v1.4.1
Cover : Yes
Attachments : cover.png
Video
ID : 1
Format : AVC
Format/Info : Advanced Video Codec
Format profile : High@L4.1
Format settings : CABAC / 4 Ref Frames
Format settings, CABAC : Yes
Format settings, Reference frames : 4 frames
Codec ID : V_MPEG4/ISO/AVC
Duration : 1 h 41 min
Bit rate : 7 400 kb/s
Width : 1 920 pixels
Height : 800 pixels
Display aspect ratio : 2.40:1
Frame rate mode : Constant
Frame rate : 23.976 FPS
Color space : YUV
Chroma subsampling : 4:2:0
Bit depth : 8 bits
Scan type : Progressive
Bits/(Pixel*Frame) : 0.201
Stream size : 5.12 GiB (93%)
Writing library : x264 core 130 r2273 b3065e6
Encoding settings : cabac=1 / ref=4 / deblock=1:-2:-1 / analyse=0x3:0x133 / me=umh / subme=10 / psy=1 / psy_rd=1.00:0.08 / mixed_ref=1 / me_range=32 / chroma_me=1 / trellis=2 / 8x8dct=1 / cqm=0 / deadzone=21,11 / fast_pskip=0 / chroma_qp_offset=-3 / threads=48 / lookahead_threads=6 / sliced_threads=0 / nr=0 / decimate=1 / interlaced=0 / bluray_compat=0 / constrained_intra=0 / bframes=11 / b_pyramid=2 / b_adapt=2 / b_bias=0 / direct=3 / weightb=1 / open_gop=0 / weightp=2 / keyint=250 / keyint_min=25 / scenecut=40 / intra_refresh=0 / rc=2pass / mbtree=0 / bitrate=7400 / ratetol=1.0 / qcomp=0.60 / qpmin=0 / qpmax=69 / qpstep=4 / cplxblur=20.0 / qblur=0.5 / ip_ratio=1.40 / pb_ratio=1.30 / aq=2:1.00
Language : English
Default : Yes
Forced : No
Color range : Limited
Color primaries : BT.709
Transfer characteristics : BT.709
Matrix coefficients : BT.709
Audio
ID : 2
Format : AC-3
Format/Info : Audio Coding 3
Commercial name : Dolby Digital
Codec ID : A_AC3
Duration : 1 h 41 min
Bit rate mode : Constant
Bit rate : 384 kb/s
Channel(s) : 6 channels
Channel layout : L R C LFE Ls Rs
Sampling rate : 48.0 kHz
Frame rate : 31.250 FPS (1536 SPF)
Compression mode : Lossy
Stream size : 278 MiB (5%)
Title : Dub | Пифагор
Language : Russian
Service kind : Complete Main
Default : Yes
Forced : No
Dialog Normalization : -27 dB
compr : 1.49 dB
dynrng : 0.78 dB
cmixlev : -3.0 dB
surmixlev : -3 dB
ltrtcmixlev : -3.0 dB
ltrtsurmixlev : -3.0 dB
lorocmixlev : -3.0 dB
lorosurmixlev : -3.0 dB
dialnorm_Average : -27 dB
dialnorm_Minimum : -27 dB
dialnorm_Maximum : -27 dB
Menu
00:00:00.000 : Chapter 01
00:05:58.608 : Chapter 02
00:12:20.698 : Chapter 03
00:19:59.365 : Chapter 04
00:27:50.961 : Chapter 05
00:32:39.166 : Chapter 06
00:38:11.539 : Chapter 07
00:44:47.476 : Chapter 08
00:49:12.741 : Chapter 09
00:56:40.522 : Chapter 10
01:03:19.754 : Chapter 11
01:06:12.760 : Chapter 12
01:14:26.796 : Chapter 13
01:22:27.860 : Chapter 14
01:28:51.493 : Chapter 15
01:34:37.088 : Chapter 16

Джон Уик 2 / John Wick: Chapter Two - 2017

Джон Уик 2 / John Wick: Chapter Two
«Never stab the devil in the back»
Год выпуска: 2017
Жанр: боевик, триллер, криминал
Выпущено: США, Гонконг | 87Eleven, Lionsgate, Summit Entertainment, Thunder Road
Режиссер: Чад Стахелски
В ролях: Киану Ривз, Риккардо Скамарчо, Иэн Макшейн, Руби Роуз, Коммон, Клаудия Джерини, Лэнс Реддик, Лоренс Фишбёрн, Тобиаш Сигал, Джон Легуизамо
О фильме:
Когда бывший коллега Джона решает взять под свой контроль таинственную гильдию убийц, Уик вынужден выйти из отставки. Ведомый кровавой клятвой Джон отправляется в Рим, где ему придется сразиться с одними из самых опасных киллеров в мире.

Качество: BDRip 1080p
Видео: AVC, 1920x800 (2.40:1), 23,976 fps, 7500 kb/s (0.204 bit/pixel)
Аудио: русский, AC3, 5.1, 48 kHz, 384 kbps CBR
Продолжительность: 02:02:22
Перевод: Дублированный | Пифагор
Субтитры: Русские | Forced

Скриншоты

MediaInfo

General
Unique ID : 222746964823566460671820278703694342498 (0xA7938144E52D69BA83A1D1DF2320E962)
Complete name : F:\Torrent\GF\John Wick Quadrology\John.Wick.Chapter.Two.2017.BDRip.1080p.Rip.by.HardwareMining.R.G.Generalfilm.mkv
Format : Matroska
Format version : Version 4
File size : 6.73 GiB
Duration : 2 h 2 min
Overall bit rate : 7 879 kb/s
Frame rate : 23.976 FPS
Movie name : John.Wick.Chapter.Two.2017.BDRip.1080p.Rip.by.HardwareMining.R.G.Generalfilm
Encoded date : 2024-05-26 08:01:34 UTC
Writing application : mkvmerge v6.8.0 ('Theme for Great Cities') 32bit built on Mar 2 2014 21:27:07
Writing library : libebml v1.3.0 + libmatroska v1.4.1
Cover : Yes
Attachments : cover.png
Video
ID : 1
Format : AVC
Format/Info : Advanced Video Codec
Format profile : High@L4.1
Format settings : CABAC / 4 Ref Frames
Format settings, CABAC : Yes
Format settings, Reference frames : 4 frames
Codec ID : V_MPEG4/ISO/AVC
Duration : 2 h 2 min
Bit rate : 7 500 kb/s
Width : 1 920 pixels
Height : 800 pixels
Display aspect ratio : 2.40:1
Frame rate mode : Constant
Frame rate : 23.976 FPS
Color space : YUV
Chroma subsampling : 4:2:0
Bit depth : 8 bits
Scan type : Progressive
Bits/(Pixel*Frame) : 0.204
Stream size : 6.27 GiB (93%)
Writing library : x264 core 130 r2273 b3065e6
Encoding settings : cabac=1 / ref=4 / deblock=1:-2:-1 / analyse=0x3:0x133 / me=umh / subme=10 / psy=1 / psy_rd=1.00:0.08 / mixed_ref=1 / me_range=32 / chroma_me=1 / trellis=2 / 8x8dct=1 / cqm=0 / deadzone=21,11 / fast_pskip=0 / chroma_qp_offset=-3 / threads=48 / lookahead_threads=6 / sliced_threads=0 / nr=0 / decimate=1 / interlaced=0 / bluray_compat=0 / constrained_intra=0 / bframes=11 / b_pyramid=2 / b_adapt=2 / b_bias=0 / direct=3 / weightb=1 / open_gop=0 / weightp=2 / keyint=250 / keyint_min=25 / scenecut=40 / intra_refresh=0 / rc=2pass / mbtree=0 / bitrate=7500 / ratetol=1.0 / qcomp=0.60 / qpmin=0 / qpmax=69 / qpstep=4 / cplxblur=20.0 / qblur=0.5 / ip_ratio=1.40 / pb_ratio=1.30 / aq=2:1.00
Language : English
Default : Yes
Forced : No
Color range : Limited
Color primaries : BT.709
Transfer characteristics : BT.709
Matrix coefficients : BT.709
Audio
ID : 2
Format : AC-3
Format/Info : Audio Coding 3
Commercial name : Dolby Digital
Codec ID : A_AC3
Duration : 2 h 2 min
Bit rate mode : Constant
Bit rate : 384 kb/s
Channel(s) : 6 channels
Channel layout : L R C LFE Ls Rs
Sampling rate : 48.0 kHz
Frame rate : 31.250 FPS (1536 SPF)
Compression mode : Lossy
Stream size : 336 MiB (5%)
Title : Dub | Пифагор
Language : Russian
Service kind : Complete Main
Default : Yes
Forced : No
Dialog Normalization : -31 dB
compr : -0.28 dB
cmixlev : -3.0 dB
surmixlev : -3 dB
mixlevel : 285 dB
roomtyp : 3
ltrtcmixlev : -3.0 dB
ltrtsurmixlev : -3.0 dB
lorocmixlev : -3.0 dB
lorosurmixlev : -4.5 dB
dialnorm_Average : -31 dB
dialnorm_Minimum : -31 dB
dialnorm_Maximum : -31 dB
Text
ID : 3
Format : UTF-8
Codec ID : S_TEXT/UTF8
Codec ID/Info : UTF-8 Plain Text
Title : Forced
Language : Russian
Default : Yes
Forced : No
Menu
00:00:00.000 : en:Chapter 1
00:06:31.683 : en:Chapter 2
00:16:57.934 : en:Chapter 3
00:26:35.594 : en:Chapter 4
00:34:38.034 : en:Chapter 5
00:42:07.817 : en:Chapter 6
00:48:07.051 : en:Chapter 7
00:56:41.648 : en:Chapter 8
01:01:42.782 : en:Chapter 9
01:10:27.682 : en:Chapter 10
01:17:15.923 : en:Chapter 11
01:24:22.641 : en:Chapter 12
01:32:11.234 : en:Chapter 13
01:40:01.329 : en:Chapter 14
01:46:34.763 : en:Chapter 15
01:54:01.042 : en:Chapter 16

Джон Уик 3 / John Wick: Chapter 3 - Parabellum - 2019

Джон Уик 3 / John Wick: Chapter 3 - Parabellum
«Тик-так, мистер Уик»
Год выпуска: 2019
Жанр: боевик, триллер, криминал
Выпущено: США | 87Eleven, Lionsgate, Summit Entertainment, Thunder Road
Режиссер: Чад Стахелски
В ролях: Киану Ривз, Холли Берри, Иэн Макшейн, Лоренс Фишбёрн, Марк Дакаскос, Азия Кейт Диллон, Лэнс Реддик, Тобиаш Сигал, Анжелика Хьюстон, Саид Тагмауи
О фильме:
Суперкиллер Джон Уик после нарушения кодекса тайной гильдии ассасинов получает статус изгоя — экскомьюникадо. За его голову назначена цена в 14 миллионов долларов, и армия самых жестоких профессиональных убийц со всего мира открывает на него кровавую охоту.

Качество: BDRip 1080p
Видео: AVC, 1920x800 (2.40:1), 23,976 fps, 8000 kb/s (0.217 bit/pixel)
Аудио: русский, AC3, 5.1, 48 kHz, 384 kbps CBR
Продолжительность: 02:10:43
Перевод: Дублированный | iTunes
Субтитры: Русские | Forced

Скриншоты

MediaInfo

General
Unique ID : 198103500622731513662111101822727292094 (0x950958AD425A2725808C780C4BC704BE)
Complete name : F:\Torrent\GF\John Wick Quadrology\John.Wick.Chapter.3.Parabellum.2019.BDRip.1080p.Rip.by.HardwareMining.R.G.Generalfilm.mkv
Format : Matroska
Format version : Version 4
File size : 7.65 GiB
Duration : 2 h 10 min
Overall bit rate : 8 382 kb/s
Frame rate : 23.976 FPS
Movie name : John.Wick.Chapter.3.Parabellum.2019.BDRip.1080p.Rip.by.HardwareMining.R.G.Generalfilm
Encoded date : 2024-05-25 12:58:46 UTC
Writing application : mkvmerge v6.8.0 ('Theme for Great Cities') 32bit built on Mar 2 2014 21:27:07
Writing library : libebml v1.3.0 + libmatroska v1.4.1
Cover : Yes
Attachments : cover.png
Video
ID : 1
Format : AVC
Format/Info : Advanced Video Codec
Format profile : High@L4.1
Format settings : CABAC / 4 Ref Frames
Format settings, CABAC : Yes
Format settings, Reference frames : 4 frames
Codec ID : V_MPEG4/ISO/AVC
Duration : 2 h 10 min
Bit rate : 8 000 kb/s
Width : 1 920 pixels
Height : 800 pixels
Display aspect ratio : 2.40:1
Frame rate mode : Constant
Frame rate : 23.976 FPS
Color space : YUV
Chroma subsampling : 4:2:0
Bit depth : 8 bits
Scan type : Progressive
Bits/(Pixel*Frame) : 0.217
Stream size : 7.15 GiB (93%)
Writing library : x264 core 130 r2273 b3065e6
Encoding settings : cabac=1 / ref=4 / deblock=1:-2:-1 / analyse=0x3:0x133 / me=umh / subme=10 / psy=1 / psy_rd=1.00:0.08 / mixed_ref=1 / me_range=32 / chroma_me=1 / trellis=2 / 8x8dct=1 / cqm=0 / deadzone=21,11 / fast_pskip=0 / chroma_qp_offset=-3 / threads=48 / lookahead_threads=6 / sliced_threads=0 / nr=0 / decimate=1 / interlaced=0 / bluray_compat=0 / constrained_intra=0 / bframes=11 / b_pyramid=2 / b_adapt=2 / b_bias=0 / direct=3 / weightb=1 / open_gop=0 / weightp=2 / keyint=250 / keyint_min=25 / scenecut=40 / intra_refresh=0 / rc=2pass / mbtree=0 / bitrate=8000 / ratetol=1.0 / qcomp=0.60 / qpmin=0 / qpmax=69 / qpstep=4 / cplxblur=20.0 / qblur=0.5 / ip_ratio=1.40 / pb_ratio=1.30 / aq=2:1.00
Language : English
Default : Yes
Forced : No
Color range : Limited
Color primaries : BT.709
Transfer characteristics : BT.709
Matrix coefficients : BT.709
Audio
ID : 2
Format : AC-3
Format/Info : Audio Coding 3
Commercial name : Dolby Digital
Codec ID : A_AC3
Duration : 2 h 10 min
Bit rate mode : Constant
Bit rate : 384 kb/s
Channel(s) : 6 channels
Channel layout : L R C LFE Ls Rs
Sampling rate : 48.0 kHz
Frame rate : 31.250 FPS (1536 SPF)
Compression mode : Lossy
Stream size : 359 MiB (5%)
Title : Dub | iTunes
Language : Russian
Service kind : Complete Main
Default : Yes
Forced : No
Dialog Normalization : -27 dB
compr : 2.36 dB
cmixlev : -3.0 dB
surmixlev : -3 dB
mixlevel : 283 dB
roomtyp : Small
dialnorm_Average : -27 dB
dialnorm_Minimum : -27 dB
dialnorm_Maximum : -27 dB
Text
ID : 3
Format : UTF-8
Codec ID : S_TEXT/UTF8
Codec ID/Info : UTF-8 Plain Text
Title : Forced
Language : Russian
Default : Yes
Forced : No
Menu
00:00:00.000 : Chapter 01
00:08:45.858 : Chapter 02
00:14:05.761 : Chapter 03
00:22:39.399 : Chapter 04
00:31:25.300 : Chapter 05
00:37:50.309 : Chapter 06
00:47:42.317 : Chapter 07
00:57:08.174 : Chapter 08
01:02:55.438 : Chapter 09
01:14:26.670 : Chapter 10
01:20:35.664 : Chapter 11
01:28:47.363 : Chapter 12
01:33:50.791 : Chapter 13
01:41:30.793 : Chapter 14
01:53:43.650 : Chapter 15
01:59:50.433 : Chapter 16

Джон Уик 4 / John Wick: Chapter 4 - 2023

Джон Уик 4 / John Wick: Chapter 4
«Baba Yaga» Год выпуска: 2023
Жанр: Боевик, триллер, криминал
Выпущено: США, Германия | 87Eleven Entertainment, Lionsgate, Summit Entertainment, Thunder Road
Режиссер: Чад Стахелски
В ролях: Киану Ривз, Донни Йен, Билл Скарсгард, Шамир Андерсон, Иэн Макшейн, Хироюки Санада, Рина Саваяма, Скотт Эдкинс, Марко Сарор, Лоренс Фишбёрн
О фильме: Оставляя за собой горы трупов, Джон Уик продолжает скрываться от всевозможных наёмных убийц, и теперь охоту на него возглавляет молодой и честолюбивый член Правления по имени Маркиз. Два управляющих отелями «Континенталь» в Нью-Йорке и Осаке, решившие по старой дружбе помочь своенравному киллеру, уже жестоко за это поплатились, но внезапно Джон узнаёт способ выбраться из этой, казалось бы, безвыходной ситуации.

Качество: BDRip 1080p
Видео: AVC, 1920x800 (2.40:1), 23,976 fps, 8590 Kbit/s (0.233 bit/pixel)
Аудио: русский, AC3, 5.1, 48 kHz, 448 kbps CBR
Продолжительность: 02:49:18
Перевод: Дублированный | Пифагор
Субтитры: Русские | Forced [off.]

Скриншоты

MediaInfo

General
Unique ID : 231437276875446136398828840596794811436 (0xAE1D32BBCE3C33B5834DC4C89BD8A42C)
Complete name : F:\Torrent\GF\John Wick Quadrology\John.Wick.Chapter.4.2023.BDRip.1080p.Rip.by.HardwareMining.R.G.Generalfilm.mkv
Format : Matroska
Format version : Version 4
File size : 10.7 GiB
Duration : 2 h 49 min
Overall bit rate : 9 038 kb/s
Frame rate : 23.976 FPS
Movie name : John.Wick.Chapter.4.2023.BDRip.1080p.Rip.by.HardwareMining.R.G.Generalfilm
Encoded date : 2024-05-26 15:06:52 UTC
Writing application : mkvmerge v6.8.0 ('Theme for Great Cities') 32bit built on Mar 2 2014 21:27:07
Writing library : libebml v1.3.0 + libmatroska v1.4.1
Cover : Yes
Attachments : cover.png
Video
ID : 1
Format : AVC
Format/Info : Advanced Video Codec
Format profile : High@L4.1
Format settings : CABAC / 4 Ref Frames
Format settings, CABAC : Yes
Format settings, Reference frames : 4 frames
Codec ID : V_MPEG4/ISO/AVC
Duration : 2 h 49 min
Bit rate : 8 590 kb/s
Width : 1 920 pixels
Height : 800 pixels
Display aspect ratio : 2.40:1
Frame rate mode : Constant
Frame rate : 23.976 FPS
Color space : YUV
Chroma subsampling : 4:2:0
Bit depth : 8 bits
Scan type : Progressive
Bits/(Pixel*Frame) : 0.233
Stream size : 9.95 GiB (93%)
Writing library : x264 core 130 r2273 b3065e6
Encoding settings : cabac=1 / ref=4 / deblock=1:-2:-1 / analyse=0x3:0x133 / me=umh / subme=10 / psy=1 / psy_rd=1.00:0.08 / mixed_ref=1 / me_range=32 / chroma_me=1 / trellis=2 / 8x8dct=1 / cqm=0 / deadzone=21,11 / fast_pskip=0 / chroma_qp_offset=-3 / threads=48 / lookahead_threads=6 / sliced_threads=0 / nr=0 / decimate=1 / interlaced=0 / bluray_compat=0 / constrained_intra=0 / bframes=11 / b_pyramid=2 / b_adapt=2 / b_bias=0 / direct=3 / weightb=1 / open_gop=0 / weightp=2 / keyint=250 / keyint_min=25 / scenecut=40 / intra_refresh=0 / rc=2pass / mbtree=0 / bitrate=8590 / ratetol=1.0 / qcomp=0.60 / qpmin=0 / qpmax=69 / qpstep=4 / cplxblur=20.0 / qblur=0.5 / ip_ratio=1.40 / pb_ratio=1.30 / aq=2:1.00
Language : English
Default : Yes
Forced : No
Color range : Limited
Color primaries : BT.709
Transfer characteristics : BT.709
Matrix coefficients : BT.709
Audio
ID : 2
Format : AC-3
Format/Info : Audio Coding 3
Commercial name : Dolby Digital
Codec ID : A_AC3
Duration : 2 h 49 min
Bit rate mode : Constant
Bit rate : 448 kb/s
Channel(s) : 6 channels
Channel layout : L R C LFE Ls Rs
Sampling rate : 48.0 kHz
Frame rate : 31.250 FPS (1536 SPF)
Compression mode : Lossy
Stream size : 543 MiB (5%)
Title : Dub [Pifagor]
Language : Russian
Service kind : Complete Main
Default : Yes
Forced : Yes
Dialog Normalization : -31 dB
cmixlev : -3.0 dB
surmixlev : -6 dB
dialnorm_Average : -31 dB
dialnorm_Minimum : -31 dB
dialnorm_Maximum : -31 dB
Text
ID : 3
Format : UTF-8
Codec ID : S_TEXT/UTF8
Codec ID/Info : UTF-8 Plain Text
Title : Forced [off.]
Language : Russian
Default : Yes
Forced : Yes
Menu
00:00:00.000 : en:Chapter 01
00:14:45.259 : en:Chapter 02
00:25:42.249 : en:Chapter 03
00:38:32.560 : en:Chapter 04
00:55:11.558 : en:Chapter 05
01:06:41.915 : en:Chapter 06
01:13:14.223 : en:Chapter 07
01:22:05.170 : en:Chapter 08
01:29:01.545 : en:Chapter 09
01:36:19.691 : en:Chapter 10
01:42:06.454 : en:Chapter 11
01:48:22.496 : en:Chapter 12
01:55:12.197 : en:Chapter 13
02:04:14.530 : en:Chapter 14
02:12:57.845 : en:Chapter 15
02:22:38.425 : en:Chapter 16
Релиз от:
[Profile] [PM]
Display posts:    
Reply to topic

Current time is: 24-Jun 22:54

All times are UTC + 3



You cannot post new topics in this forum
You cannot reply to topics in this forum
You cannot edit your posts in this forum
You cannot delete your posts in this forum
You cannot vote in polls in this forum
You cannot attach files in this forum
You cannot download files in this forum