Дюна: Часть вторая / Dune: Part Two (2024) BDRip 1080p | Bravo Records Georgia / Movie Dubbing | Red Head Sound

Reply to topic
 
Author Message

HardwareMining ®

Gender: Male

Longevity: 4 years 9 months

Posts: 654

Post 16-Jun-2024 07:10

[Quote]

Дюна: Часть вторая / Dune: Part Two
Год выпуска: 2024
Жанр: фантастика, боевик, драма, приключения
Выпущено: США, Канада, ОАЭ, Венгрия, Италия, Новая Зеландия, Иордания, Гамбия | Legendary Pictures, Villeneuve Films, Warner Bros., Warner Bros. Entertainment
Режиссер: Дени Вильнёв
В ролях: Тимоти Шаламе, Зендея, Ребекка Фергюсон, Хавьер Бардем, Джош Бролин, Остин Батлер, Флоренс Пью, Дэйв Батиста, Кристофер Уокен, Леа Сейду
О фильме:
Герцог Пол Атрейдес присоединяется к фременам, чтобы стать Муад Дибом, одновременно пытаясь остановить наступление войны.

Качество: BDRip 1080p
Видео: AVC, 1920x800 (2.40:1), 23,976 fps, 5910 Kbit/s (0.160 bit/pixel)
Аудио:#1 русский, AC3, 5.1, 48 kHz, 384 kbps CBR
Аудио:#2 русский, AC3, 5.1, 48 kHz, 640 kbps CBR
Продолжительность: 02:45:48
Перевод:#1 Дублированный | Bravo Records Georgia / Movie Dubbing
Перевод:#2 Дублированный | Red Head Sound
Субтитры: Русские | Forced

Скриншоты

MediaInfo

General
Unique ID : 193583316286436921788354994501382879374 (0x91A2CA61F145643D8B04F439D194B88E)
Complete name : E:\GF\Dune.Part.Two.2024.BDRip.1080p.Rip.by.HardwareMining.R.G.Generalfilm.mkv
Format : Matroska
Format version : Version 4
File size : 8.04 GiB
Duration : 2 h 45 min
Overall bit rate : 6 939 kb/s
Frame rate : 23.976 FPS
Movie name : Dune.Part.Two.2024.BDRip.1080p.Rip.by.HardwareMining.R.G.Generalfilm
Encoded date : 2024-06-13 15:48:43 UTC
Writing application : mkvmerge v6.8.0 ('Theme for Great Cities') 32bit built on Mar 2 2014 21:27:07
Writing library : libebml v1.3.0 + libmatroska v1.4.1
Cover : Yes
Attachments : cover.png
Video
ID : 1
Format : AVC
Format/Info : Advanced Video Codec
Format profile : High@L4.1
Format settings : CABAC / 4 Ref Frames
Format settings, CABAC : Yes
Format settings, Reference frames : 4 frames
Codec ID : V_MPEG4/ISO/AVC
Duration : 2 h 45 min
Bit rate : 5 910 kb/s
Width : 1 920 pixels
Height : 800 pixels
Display aspect ratio : 2.40:1
Frame rate mode : Constant
Frame rate : 23.976 FPS
Color space : YUV
Chroma subsampling : 4:2:0
Bit depth : 8 bits
Scan type : Progressive
Bits/(Pixel*Frame) : 0.160
Stream size : 6.69 GiB (83%)
Writing library : x264 core 130 r2273 b3065e6
Encoding settings : cabac=1 / ref=4 / deblock=1:-2:-1 / analyse=0x3:0x133 / me=umh / subme=10 / psy=1 / psy_rd=1.00:0.08 / mixed_ref=1 / me_range=32 / chroma_me=1 / trellis=2 / 8x8dct=1 / cqm=0 / deadzone=21,11 / fast_pskip=0 / chroma_qp_offset=-3 / threads=48 / lookahead_threads=6 / sliced_threads=0 / nr=0 / decimate=1 / interlaced=0 / bluray_compat=0 / constrained_intra=0 / bframes=11 / b_pyramid=2 / b_adapt=2 / b_bias=0 / direct=3 / weightb=1 / open_gop=0 / weightp=2 / keyint=250 / keyint_min=25 / scenecut=40 / intra_refresh=0 / rc=2pass / mbtree=0 / bitrate=5910 / ratetol=1.0 / qcomp=0.60 / qpmin=0 / qpmax=69 / qpstep=4 / cplxblur=20.0 / qblur=0.5 / ip_ratio=1.40 / pb_ratio=1.30 / aq=2:1.00
Language : English
Default : Yes
Forced : No
Color range : Limited
Color primaries : BT.709
Transfer characteristics : BT.709
Matrix coefficients : BT.709
Audio #1
ID : 2
Format : AC-3
Format/Info : Audio Coding 3
Commercial name : Dolby Digital
Codec ID : A_AC3
Duration : 2 h 45 min
Bit rate mode : Constant
Bit rate : 384 kb/s
Channel(s) : 6 channels
Channel layout : L R C LFE Ls Rs
Sampling rate : 48.0 kHz
Frame rate : 31.250 FPS (1536 SPF)
Compression mode : Lossy
Stream size : 455 MiB (6%)
Title : Dub | Bravo Records Georgia / Movie Dubbing
Language : Russian
Service kind : Complete Main
Default : Yes
Forced : No
Dialog Normalization : -31 dB
cmixlev : -3.0 dB
surmixlev : -6 dB
dialnorm_Average : -31 dB
dialnorm_Minimum : -31 dB
dialnorm_Maximum : -31 dB
Audio #2
ID : 3
Format : AC-3
Format/Info : Audio Coding 3
Commercial name : Dolby Digital
Codec ID : A_AC3
Duration : 2 h 45 min
Bit rate mode : Constant
Bit rate : 640 kb/s
Channel(s) : 6 channels
Channel layout : L R C LFE Ls Rs
Sampling rate : 48.0 kHz
Frame rate : 31.250 FPS (1536 SPF)
Compression mode : Lossy
Stream size : 759 MiB (9%)
Title : Dub | Red Head Sound
Language : Russian
Service kind : Complete Main
Default : No
Forced : No
Dialog Normalization : -31 dB
cmixlev : -3.0 dB
surmixlev : -3 dB
dialnorm_Average : -31 dB
dialnorm_Minimum : -31 dB
dialnorm_Maximum : -31 dB
Text
ID : 4
Format : UTF-8
Codec ID : S_TEXT/UTF8
Codec ID/Info : UTF-8 Plain Text
Title : Forced
Language : Russian
Default : Yes
Forced : Yes
Menu
00:00:00.000 : en:Chapter 01
00:09:14.220 : en:Chapter 02
00:21:28.913 : en:Chapter 03
00:29:30.018 : en:Chapter 04
00:40:07.905 : en:Chapter 05
00:50:39.912 : en:Chapter 06
01:00:33.129 : en:Chapter 07
01:09:53.523 : en:Chapter 08
01:19:39.483 : en:Chapter 09
01:30:38.933 : en:Chapter 10
01:39:05.064 : en:Chapter 11
01:49:34.860 : en:Chapter 12
01:59:39.422 : en:Chapter 13
02:10:23.607 : en:Chapter 14
02:18:49.279 : en:Chapter 15
02:24:18.233 : en:Chapter 16
02:37:44.789 : en:Chapter 17
Релиз от:
[Profile] [PM]
Display posts:    
Reply to topic

Current time is: 20-Jul 15:46

All times are UTC + 3



You cannot post new topics in this forum
You cannot reply to topics in this forum
You cannot edit your posts in this forum
You cannot delete your posts in this forum
You cannot vote in polls in this forum
You cannot attach files in this forum
You cannot download files in this forum