Пчеловод / The Beekeeper (2024) BDRip 1080p | Велес

Reply to topic
 
Author Message

HardwareMining ®

Gender: Male

Longevity: 4 years 9 months

Posts: 657

Post 16-Jun-2024 13:00

[Quote]

Пчеловод / The Beekeeper
Год выпуска: 2024
Жанр: боевик, криминал
Выпущено: США, Великобритания | Cedar Park Entertainment, Miramax Films
Режиссер: Дэвид Эйр
В ролях: Джейсон Стэйтем, Эмми Рэйвер-Лэмпман, Бобби Надери, Джош Хатчерсон, Джереми Айронс, Дэвид Уиттс, Михаэль Эпп, Тейлор Джеймс, Филисия Рашад, Джемма Редгрейв
О фильме:
Адам Клэй живет в тихом пригороде, занимается разведением пчёл и не распространяется о своей прошлой жизни. Он дружит с пожилой соседкой миссис Паркер, у которой арендует сарай. Однажды миссис Паркер становится жертвой кибермошенников, которые похищают деньги со всех её счетов. Не в силах вынести такой удар, женщина сводит счёты с жизнью. Осознав, что закон в данной ситуации бессилен, Адам решает применить все свои боевые навыки, чтобы вычислить преступников и отомстить.

Качество: BDRip 1080p
Видео: AVC, 1920x800 (2.40:1), 23,976 fps, 7910 Kbit/s (0.215 bit/pixel)
Аудио: русский, AC3, 5.1, 48 kHz, 384 kbps CBR
Продолжительность: 01:45:14
Перевод: Дублированный | Велес
Субтитры: Русские | Forced

Скриншоты

MediaInfo

General
Unique ID : 208457324208870027579175148186957495382 (0x9CD36B979B1231CE96BF4BEBD2B3BC56)
Complete name : E:\GF\The.Beekeeper.2024.BDRip.1080p.Rip.by.HardwareMining.R.G.Generalfilm.mkv
Format : Matroska
Format version : Version 4
File size : 6.09 GiB
Duration : 1 h 45 min
Overall bit rate : 8 287 kb/s
Frame rate : 23.976 FPS
Movie name : The.Beekeeper.2024.BDRip.1080p.Rip.by.HardwareMining.R.G.Generalfilm
Encoded date : 2024-06-16 09:41:18 UTC
Writing application : mkvmerge v6.8.0 ('Theme for Great Cities') 32bit built on Mar 2 2014 21:27:07
Writing library : libebml v1.3.0 + libmatroska v1.4.1
Cover : Yes
Attachments : cover.png
Video
ID : 1
Format : AVC
Format/Info : Advanced Video Codec
Format profile : High@L4.1
Format settings : CABAC / 4 Ref Frames
Format settings, CABAC : Yes
Format settings, Reference frames : 4 frames
Codec ID : V_MPEG4/ISO/AVC
Duration : 1 h 45 min
Bit rate : 7 910 kb/s
Width : 1 920 pixels
Height : 800 pixels
Display aspect ratio : 2.40:1
Frame rate mode : Constant
Frame rate : 23.976 FPS
Color space : YUV
Chroma subsampling : 4:2:0
Bit depth : 8 bits
Scan type : Progressive
Bits/(Pixel*Frame) : 0.215
Stream size : 5.69 GiB (93%)
Writing library : x264 core 130 r2273 b3065e6
Encoding settings : cabac=1 / ref=4 / deblock=1:-2:-1 / analyse=0x3:0x133 / me=umh / subme=10 / psy=1 / psy_rd=1.00:0.08 / mixed_ref=1 / me_range=32 / chroma_me=1 / trellis=2 / 8x8dct=1 / cqm=0 / deadzone=21,11 / fast_pskip=0 / chroma_qp_offset=-3 / threads=48 / lookahead_threads=6 / sliced_threads=0 / nr=0 / decimate=1 / interlaced=0 / bluray_compat=0 / constrained_intra=0 / bframes=11 / b_pyramid=2 / b_adapt=2 / b_bias=0 / direct=3 / weightb=1 / open_gop=0 / weightp=2 / keyint=250 / keyint_min=25 / scenecut=40 / intra_refresh=0 / rc=2pass / mbtree=0 / bitrate=7910 / ratetol=1.0 / qcomp=0.60 / qpmin=0 / qpmax=69 / qpstep=4 / cplxblur=20.0 / qblur=0.5 / ip_ratio=1.40 / pb_ratio=1.30 / aq=2:1.00
Language : English
Default : Yes
Forced : No
Color range : Limited
Color primaries : BT.709
Transfer characteristics : BT.709
Matrix coefficients : BT.709
Audio
ID : 2
Format : AC-3
Format/Info : Audio Coding 3
Commercial name : Dolby Digital
Codec ID : A_AC3
Duration : 1 h 45 min
Bit rate mode : Constant
Bit rate : 384 kb/s
Channel(s) : 6 channels
Channel layout : L R C LFE Ls Rs
Sampling rate : 48.0 kHz
Frame rate : 31.250 FPS (1536 SPF)
Compression mode : Lossy
Stream size : 289 MiB (5%)
Title : Dub | Велес
Language : Russian
Service kind : Complete Main
Default : Yes
Forced : No
Dialog Normalization : -27 dB
compr : -0.28 dB
cmixlev : -3.0 dB
surmixlev : -3 dB
mixlevel : 280 dB
roomtyp : Large
ltrtcmixlev : -3.0 dB
ltrtsurmixlev : -3.0 dB
lorocmixlev : -3.0 dB
lorosurmixlev : -4.5 dB
dialnorm_Average : -27 dB
dialnorm_Minimum : -27 dB
dialnorm_Maximum : -27 dB
Text
ID : 3
Format : UTF-8
Codec ID : S_TEXT/UTF8
Codec ID/Info : UTF-8 Plain Text
Title : Forced
Language : Russian
Default : Yes
Forced : No
Menu
00:00:00.000 : en:Chapter 1
00:14:25.907 : en:Chapter 2
00:29:43.407 : en:Chapter 3
00:45:56.587 : en:Chapter 4
00:59:35.322 : en:Chapter 5
01:14:40.351 : en:Chapter 6
01:27:46.428 : en:Chapter 7
01:40:14.091 : en:Chapter 8
Релиз от:
[Profile] [PM]
Display posts:    
Reply to topic

Current time is: 23-Jul 17:42

All times are UTC + 3



You cannot post new topics in this forum
You cannot reply to topics in this forum
You cannot edit your posts in this forum
You cannot delete your posts in this forum
You cannot vote in polls in this forum
You cannot attach files in this forum
You cannot download files in this forum